SHARE
TWEET

The Mermaid: Lake Of the Dead BluRay 720p

dirtyharrys Jun 21st, 2019 59 Never
Not a member of Pastebin yet? Sign Up, it unlocks many cool features!
  1. General
  2. Unique ID                   : 337830673994713705260428301299666373052 (0xFE27D234C8457AC87BF46FC3D8A3C9BC)
  3. Complete name               : E:\QlJSVGhlTWVybWFpZDpMYWtlT2Z0aGVEZWFk.mkv
  4. Format                      : Matroska
  5. Format version              : Version 4
  6. File size                   : 1.46 GiB
  7. Duration                    : 1 h 27 min
  8. Overall bit rate            : 2 396 kb/s
  9. Movie name                  : The Mermaid: Lake Of the Dead BR-RIP / The Mermaid: Lake Of the Dead BR-RIP
  10. Encoded date                : UTC 2019-06-20 08:45:11
  11. Writing application         : mkvmerge v30.1.0 ('Forever And More') 32-bit
  12. Writing library             : libebml v1.3.6 + libmatroska v1.4.9
  13. Copyright                   : Movies HDs 2019
  14. ARTIST                      : HarshLearner
  15.  
  16. Video
  17. ID                          : 1
  18. Format                      : AVC
  19. Format/Info                 : Advanced Video Codec
  20. Format profile              : High@L4.1
  21. Format settings             : CABAC / 4 Ref Frames
  22. Format settings, CABAC      : Yes
  23. Format settings, ReFrames   : 4 frames
  24. Codec ID                    : V_MPEG4/ISO/AVC
  25. Duration                    : 1 h 26 min
  26. Bit rate                    : 1 500 kb/s
  27. Width                       : 1 280 pixels
  28. Height                      : 534 pixels
  29. Display aspect ratio        : 2.40:1
  30. Frame rate mode             : Constant
  31. Frame rate                  : 23.976 (24000/1001) FPS
  32. Color space                 : YUV
  33. Chroma subsampling          : 4:2:0
  34. Bit depth                   : 8 bits
  35. Scan type                   : Progressive
  36. Bits/(Pixel*Frame)          : 0.092
  37. Stream size                 : 932 MiB (63%)
  38. Title                       : The Mermaid: Lake Of the Dead
  39. Writing library             : x264 core 155 r2901 7d0ff22
  40. Default                     : Yes
  41. Forced                      : No
  42. Color range                 : Limited
  43. Color primaries             : BT.709
  44. Transfer characteristics    : BT.709
  45. Matrix coefficients         : BT.709
  46.  
  47. Audio #1
  48. ID                          : 2
  49. Format                      : AC-3
  50. Format/Info                 : Audio Coding 3
  51. Commercial name             : Dolby Digital
  52. Codec ID                    : A_AC3
  53. Duration                    : 1 h 26 min
  54. Bit rate mode               : Constant
  55. Bit rate                    : 640 kb/s
  56. Channel(s)                  : 6 channels
  57. Channel layout              : L R C LFE Ls Rs
  58. Sampling rate               : 48.0 kHz
  59. Frame rate                  : 31.250 FPS (1536 SPF)
  60. Bit depth                   : 16 bits
  61. Compression mode            : Lossy
  62. Delay relative to video     : -5 ms
  63. Stream size                 : 398 MiB (27%)
  64. Language                    : English
  65. Service kind                : Complete Main
  66. Default                     : No
  67. Forced                      : No
  68.  
  69. Audio #2
  70. ID                          : 3
  71. Format                      : AC-3
  72. Format/Info                 : Audio Coding 3
  73. Commercial name             : Dolby Digital
  74. Codec ID                    : A_AC3
  75. Duration                    : 1 h 27 min
  76. Bit rate mode               : Constant
  77. Bit rate                    : 256 kb/s
  78. Channel(s)                  : 2 channels
  79. Channel layout              : L R
  80. Sampling rate               : 48.0 kHz
  81. Frame rate                  : 31.250 FPS (1536 SPF)
  82. Bit depth                   : 16 bits
  83. Compression mode            : Lossy
  84. Delay relative to video     : -5 ms
  85. Stream size                 : 159 MiB (11%)
  86. Language                    : Spanish
  87. Service kind                : Complete Main
  88. Default                     : Yes
  89. Forced                      : Yes
  90.  
  91. Text #1
  92. ID                          : 4
  93. Format                      : UTF-8
  94. Codec ID                    : S_TEXT/UTF8
  95. Codec ID/Info               : UTF-8 Plain Text
  96. Duration                    : 1 h 21 min
  97. Bit rate                    : 40 b/s
  98. Count of elements           : 1067
  99. Stream size                 : 24.2 KiB (0%)
  100. Language                    : English
  101. Default                     : No
  102. Forced                      : No
  103.  
  104. Text #2
  105. ID                          : 5
  106. Format                      : UTF-8
  107. Codec ID                    : S_TEXT/UTF8
  108. Codec ID/Info               : UTF-8 Plain Text
  109. Duration                    : 1 h 20 min
  110. Bit rate                    : 26 b/s
  111. Count of elements           : 542
  112. Stream size                 : 15.4 KiB (0%)
  113. Language                    : Spanish
  114. Default                     : Yes
  115. Forced                      : Yes
  116.  
  117. Menu
  118. 00:00:00.000                : :Chapter 01
  119. 00:12:06.720                : :Chapter 02
  120. 00:29:01.440                : :Chapter 03
  121. 00:49:32.160                : :Chapter 04
  122. 01:08:28.800                : :Chapter 05
  123. 01:19:34.560                : :Chapter 06
RAW Paste Data
We use cookies for various purposes including analytics. By continuing to use Pastebin, you agree to our use of cookies as described in the Cookies Policy. OK, I Understand
 
Top