GrabHD

Untitled

Feb 22nd, 2020
107
Never
Not a member of Pastebin yet? Sign Up, it unlocks many cool features!
  1. Общее
  2. Уникальный идентификатор : 223856140256285052800959103735761108966 (0xA8691FD711D658FA9B961F4FAECA7FE6)
  3. Полное имя : D:\Раздача\Smert Nam K Licu.2019.WEB-DLRip-AVC.grab777.mkv
  4. Формат : Matroska
  5. Версия формата : Version 4 / Version 2
  6. Размер файла : 1,77 Гбайт
  7. Продолжительность : 1 ч. 16 м.
  8. Общий поток : 3317 Кбит/сек
  9. Название фильма : Смерть нам к лицу 2019 WEB-DLRip-AVC grab777
  10. Дата кодирования : UTC 2020-02-22 13:45:37
  11. Программа кодирования : mkvmerge v7.3.0 ('Nouages') 64bit built on Oct 22 2014 18:53:34
  12. Библиотека кодирования : libebml v1.3.0 + libmatroska v1.4.1
  13.  
  14. Видео
  15. Идентификатор : 1
  16. Формат : AVC
  17. Формат/Информация : Advanced Video Codec
  18. Профиль формата : High@L4.1
  19. Настройки формата : CABAC / 12 Ref Frames
  20. Параметр CABAC формата : Да
  21. Параметр RefFrames формата : 12 кадров
  22. Идентификатор кодека : V_MPEG4/ISO/AVC
  23. Продолжительность : 1 ч. 16 м.
  24. Битрейт : 3123 Кбит/сек
  25. Ширина : 1024 пикселя
  26. Высота : 576 пикселей
  27. Соотношение сторон : 16:9
  28. Режим частоты кадров : Постоянный
  29. Частота кадров : 25,000 кадров/сек
  30. Цветовое пространство : YUV
  31. Субдискретизация насыщенности : 4:2:0
  32. Битовая глубина : 8 бит
  33. Тип развёртки : Прогрессивная
  34. Бит/(Пиксели*Кадры) : 0.212
  35. Размер потока : 1,66 Гбайт (94%)
  36. Заголовок : Rip by grab777
  37. Библиотека кодирования : x264 core 148 r2665M a01e339
  38. Настройки программы : cabac=1 / ref=12 / deblock=1:-2:-2 / analyse=0x3:0x133 / me=umh / subme=10 / psy=1 / psy_rd=1.00:0.15 / mixed_ref=1 / me_range=32 / chroma_me=1 / trellis=2 / 8x8dct=1 / cqm=0 / deadzone=21,11 / fast_pskip=0 / chroma_qp_offset=-3 / threads=5 / lookahead_threads=1 / sliced_threads=0 / nr=0 / decimate=1 / interlaced=0 / bluray_compat=0 / constrained_intra=0 / bframes=10 / b_pyramid=2 / b_adapt=2 / b_bias=0 / direct=3 / weightb=1 / open_gop=0 / weightp=2 / keyint=250 / keyint_min=25 / scenecut=40 / intra_refresh=0 / rc_lookahead=40 / rc=crf / mbtree=1 / crf=19.4 / qcomp=0.90 / qpmin=3 / qpmax=69 / qpstep=4 / vbv_maxrate=40000 / vbv_bufsize=30000 / crf_max=31.0 / nal_hrd=none / filler=0 / ip_ratio=1.40 / aq=1:0.00
  39. Язык : Russian
  40. Default : Да
  41. Forced : Нет
  42.  
  43. Аудио
  44. Идентификатор : 2
  45. Формат : AC-3
  46. Формат/Информация : Audio Coding 3
  47. Параметр Endianness формата : Big
  48. Идентификатор кодека : A_AC3
  49. Продолжительность : 1 ч. 16 м.
  50. Вид битрейта : Постоянный
  51. Битрейт : 192 Кбит/сек
  52. Каналы : 2 канала
  53. Расположение каналов : Front: L R
  54. Частота : 48,0 КГц
  55. Частота кадров : 31,250 кадров/сек (1536 SPF)
  56. Битовая глубина : 16 бит
  57. Метод сжатия : С потерями
  58. Размер потока : 105 Мбайт (6%)
  59. Заголовок : Original
  60. Язык : Russian
  61. ServiceKind/String : Complete Main
  62. Default : Да
  63. Forced : Нет
  64.  
  65. Меню
  66. 00:00:00.000 : :Глава 1
  67. 00:08:45.883 : :Глава 2
  68. 00:16:20.460 : :Глава 3
  69. 00:23:46.000 : :Глава 4
  70. 00:29:15.915 : :Глава 5
  71. 00:36:50.000 : :Глава 6
  72. 00:44:16.000 : :Глава 7
  73. 00:51:22.000 : :Глава 8
RAW Paste Data