SHARE
TWEET

Untitled

a guest Oct 11th, 2019 81 Never
Not a member of Pastebin yet? Sign Up, it unlocks many cool features!
  1. General
  2. Unique ID                                : 200211730818481526911480409437292648906 (0x969F6073596D703599618087EB2ED9CA)
  3. Complete name                            : The.Influence.2019.Dual-Audio.1080p.NF.WEB-DL.DDP5.1.H264-CMRG
  4. Format                                   : Matroska
  5. Format version                           : Version 4
  6. File size                                : 2.72 GiB
  7. Duration                                 : 1 h 42 min
  8. Overall bit rate mode                    : Variable
  9. Overall bit rate                         : 3 804 kb/s
  10. Movie name                               : CMRG
  11. Encoded date                             : UTC 2019-10-11 07:22:23
  12. Writing application                      : mkvmerge v11.0.0 ('Alive') 64bit
  13. Writing library                          : libebml v1.3.4 + libmatroska v1.4.5
  14.  
  15. Video
  16. ID                                       : 1
  17. Format                                   : AVC
  18. Format/Info                              : Advanced Video Codec
  19. Format profile                           : High@L4
  20. Format settings                          : CABAC / 4 Ref Frames
  21. Format settings, CABAC                   : Yes
  22. Format settings, Reference frames        : 4 frames
  23. Codec ID                                 : V_MPEG4/ISO/AVC
  24. Duration                                 : 1 h 42 min
  25. Bit rate mode                            : Variable
  26. Bit rate                                 : 2 520 kb/s
  27. Maximum bit rate                         : 20.0 Mb/s
  28. Width                                    : 1 920 pixels
  29. Height                                   : 1 080 pixels
  30. Display aspect ratio                     : 16:9
  31. Frame rate mode                          : Constant
  32. Frame rate                               : 24.000 FPS
  33. Color space                              : YUV
  34. Chroma subsampling                       : 4:2:0
  35. Bit depth                                : 8 bits
  36. Scan type                                : Progressive
  37. Bits/(Pixel*Frame)                       : 0.051
  38. Stream size                              : 1.80 GiB (66%)
  39. Writing library                          : x264 core 148 r2715 7e75228
  40. Encoding settings                        : cabac=1 / ref=4 / deblock=1:0:0 / analyse=0x3:0x111 / me=umh / subme=10 / psy=1 / psy_rd=1.00:0.00 / mixed_ref=1 / me_range=120 / chroma_me=1 / trellis=2 / 8x8dct=1 / cqm=0 / deadzone=21,11 / fast_pskip=1 / chroma_qp_offset=-2 / threads=8 / lookahead_threads=2 / sliced_threads=0 / nr=0 / decimate=1 / interlaced=0 / bluray_compat=0 / stitchable=1 / constrained_intra=0 / bframes=16 / b_pyramid=2 / b_adapt=2 / b_bias=0 / direct=3 / weightb=1 / open_gop=0 / weightp=2 / keyint=240 / keyint_min=121 / scenecut=0 / intra_refresh=0 / rc_lookahead=240 / rc=crf / mbtree=1 / crf=16.0 / qcomp=0.50 / qpmin=6 / qpmax=51 / qpstep=4 / vbv_maxrate=20000 / vbv_bufsize=25000 / crf_max=0.0 / nal_hrd=vbr / filler=0 / ip_ratio=1.40 / aq=1:0.80
  41. Default                                  : Yes
  42. Forced                                   : No
  43.  
  44. Audio #1
  45. ID                                       : 2
  46. Format                                   : E-AC-3
  47. Format/Info                              : Enhanced AC-3
  48. Commercial name                          : Dolby Digital Plus
  49. Codec ID                                 : A_EAC3
  50. Duration                                 : 1 h 42 min
  51. Bit rate mode                            : Constant
  52. Bit rate                                 : 640 kb/s
  53. Channel(s)                               : 6 channels
  54. Channel layout                           : L R C LFE Ls Rs
  55. Sampling rate                            : 48.0 kHz
  56. Frame rate                               : 31.250 FPS (1536 SPF)
  57. Compression mode                         : Lossy
  58. Stream size                              : 468 MiB (17%)
  59. Title                                    : English
  60. Language                                 : English
  61. Service kind                             : Complete Main
  62. Default                                  : Yes
  63. Forced                                   : No
  64.  
  65. Audio #2
  66. ID                                       : 3
  67. Format                                   : E-AC-3
  68. Format/Info                              : Enhanced AC-3
  69. Commercial name                          : Dolby Digital Plus
  70. Codec ID                                 : A_EAC3
  71. Duration                                 : 1 h 42 min
  72. Bit rate mode                            : Constant
  73. Bit rate                                 : 640 kb/s
  74. Channel(s)                               : 6 channels
  75. Channel layout                           : L R C LFE Ls Rs
  76. Sampling rate                            : 48.0 kHz
  77. Frame rate                               : 31.250 FPS (1536 SPF)
  78. Compression mode                         : Lossy
  79. Stream size                              : 468 MiB (17%)
  80. Title                                    : Castilian
  81. Language                                 : Spanish
  82. Service kind                             : Complete Main
  83. Default                                  : No
  84. Forced                                   : No
  85.  
  86. Text #1
  87. ID                                       : 4
  88. Format                                   : UTF-8
  89. Codec ID                                 : S_TEXT/UTF8
  90. Codec ID/Info                            : UTF-8 Plain Text
  91. Duration                                 : 1 h 41 min
  92. Bit rate                                 : 24 b/s
  93. Count of elements                        : 650
  94. Stream size                              : 17.9 KiB (0%)
  95. Title                                    : English
  96. Language                                 : English
  97. Default                                  : No
  98. Forced                                   : No
  99.  
  100. Text #2
  101. ID                                       : 5
  102. Format                                   : UTF-8
  103. Codec ID                                 : S_TEXT/UTF8
  104. Codec ID/Info                            : UTF-8 Plain Text
  105. Duration                                 : 1 h 38 min
  106. Bit rate                                 : 28 b/s
  107. Count of elements                        : 777
  108. Stream size                              : 20.7 KiB (0%)
  109. Title                                    : Castilian [SDH]
  110. Language                                 : Spanish
  111. Default                                  : No
  112. Forced                                   : No
  113.  
  114. Text #3
  115. ID                                       : 6
  116. Format                                   : UTF-8
  117. Codec ID                                 : S_TEXT/UTF8
  118. Codec ID/Info                            : UTF-8 Plain Text
  119. Duration                                 : 1 h 41 min
  120. Bit rate                                 : 22 b/s
  121. Count of elements                        : 647
  122. Stream size                              : 16.8 KiB (0%)
  123. Title                                    : French
  124. Language                                 : French
  125. Default                                  : No
  126. Forced                                   : No
  127.  
  128. Text #4
  129. ID                                       : 7
  130. Format                                   : UTF-8
  131. Codec ID                                 : S_TEXT/UTF8
  132. Codec ID/Info                            : UTF-8 Plain Text
  133. Duration                                 : 1 h 41 min
  134. Bit rate                                 : 22 b/s
  135. Count of elements                        : 621
  136. Stream size                              : 16.5 KiB (0%)
  137. Title                                    : German
  138. Language                                 : German
  139. Default                                  : No
  140. Forced                                   : No
  141.  
  142. Text #5
  143. ID                                       : 8
  144. Format                                   : UTF-8
  145. Codec ID                                 : S_TEXT/UTF8
  146. Codec ID/Info                            : UTF-8 Plain Text
  147. Duration                                 : 1 h 41 min
  148. Bit rate                                 : 22 b/s
  149. Count of elements                        : 646
  150. Stream size                              : 16.6 KiB (0%)
  151. Title                                    : Italian
  152. Language                                 : Italian
  153. Default                                  : No
  154. Forced                                   : No
  155.  
  156. Text #6
  157. ID                                       : 9
  158. Format                                   : UTF-8
  159. Codec ID                                 : S_TEXT/UTF8
  160. Codec ID/Info                            : UTF-8 Plain Text
  161. Duration                                 : 1 h 41 min
  162. Bit rate                                 : 23 b/s
  163. Count of elements                        : 658
  164. Stream size                              : 17.5 KiB (0%)
  165. Title                                    : Portuguese
  166. Language                                 : Portuguese
  167. Default                                  : No
  168. Forced                                   : No
  169.  
  170. Text #7
  171. ID                                       : 10
  172. Format                                   : UTF-8
  173. Codec ID                                 : S_TEXT/UTF8
  174. Codec ID/Info                            : UTF-8 Plain Text
  175. Duration                                 : 1 h 41 min
  176. Bit rate                                 : 22 b/s
  177. Count of elements                        : 658
  178. Stream size                              : 16.8 KiB (0%)
  179. Title                                    : Brazilian Portuguese
  180. Language                                 : Portuguese
  181. Default                                  : No
  182. Forced                                   : No
  183.  
  184. Text #8
  185. ID                                       : 11
  186. Format                                   : UTF-8
  187. Codec ID                                 : S_TEXT/UTF8
  188. Codec ID/Info                            : UTF-8 Plain Text
  189. Duration                                 : 1 h 41 min
  190. Bit rate                                 : 21 b/s
  191. Count of elements                        : 648
  192. Stream size                              : 16.0 KiB (0%)
  193. Title                                    : Polish
  194. Language                                 : Polish
  195. Default                                  : No
  196. Forced                                   : No
  197.  
  198. Text #9
  199. ID                                       : 12
  200. Format                                   : UTF-8
  201. Codec ID                                 : S_TEXT/UTF8
  202. Codec ID/Info                            : UTF-8 Plain Text
  203. Duration                                 : 1 h 41 min
  204. Bit rate                                 : 22 b/s
  205. Count of elements                        : 659
  206. Stream size                              : 16.7 KiB (0%)
  207. Title                                    : Turkish
  208. Language                                 : Turkish
  209. Default                                  : No
  210. Forced                                   : No
  211.  
  212. Text #10
  213. ID                                       : 13
  214. Format                                   : UTF-8
  215. Codec ID                                 : S_TEXT/UTF8
  216. Codec ID/Info                            : UTF-8 Plain Text
  217. Duration                                 : 1 h 41 min
  218. Bit rate                                 : 23 b/s
  219. Count of elements                        : 659
  220. Stream size                              : 17.4 KiB (0%)
  221. Title                                    : Swedish
  222. Language                                 : Swedish
  223. Default                                  : No
  224. Forced                                   : No
  225.  
  226. Text #11
  227. ID                                       : 14
  228. Format                                   : UTF-8
  229. Codec ID                                 : S_TEXT/UTF8
  230. Codec ID/Info                            : UTF-8 Plain Text
  231. Duration                                 : 1 h 41 min
  232. Bit rate                                 : 22 b/s
  233. Count of elements                        : 637
  234. Stream size                              : 16.8 KiB (0%)
  235. Title                                    : Danish
  236. Language                                 : Danish
  237. Default                                  : No
  238. Forced                                   : No
  239.  
  240. Text #12
  241. ID                                       : 15
  242. Format                                   : UTF-8
  243. Codec ID                                 : S_TEXT/UTF8
  244. Codec ID/Info                            : UTF-8 Plain Text
  245. Duration                                 : 1 h 41 min
  246. Bit rate                                 : 22 b/s
  247. Count of elements                        : 649
  248. Stream size                              : 16.6 KiB (0%)
  249. Title                                    : Finnish
  250. Language                                 : Finnish
  251. Default                                  : No
  252. Forced                                   : No
  253.  
  254. Text #13
  255. ID                                       : 16
  256. Format                                   : UTF-8
  257. Codec ID                                 : S_TEXT/UTF8
  258. Codec ID/Info                            : UTF-8 Plain Text
  259. Duration                                 : 1 h 41 min
  260. Bit rate                                 : 21 b/s
  261. Count of elements                        : 630
  262. Stream size                              : 15.7 KiB (0%)
  263. Title                                    : Dutch
  264. Language                                 : Dutch
  265. Default                                  : No
  266. Forced                                   : No
  267.  
  268. Text #14
  269. ID                                       : 17
  270. Format                                   : UTF-8
  271. Codec ID                                 : S_TEXT/UTF8
  272. Codec ID/Info                            : UTF-8 Plain Text
  273. Duration                                 : 1 h 41 min
  274. Bit rate                                 : 23 b/s
  275. Count of elements                        : 647
  276. Stream size                              : 17.4 KiB (0%)
  277. Title                                    : Norwegian
  278. Language                                 : Norwegian
  279. Default                                  : No
  280. Forced                                   : No
  281.  
  282. Text #15
  283. ID                                       : 18
  284. Format                                   : UTF-8
  285. Codec ID                                 : S_TEXT/UTF8
  286. Codec ID/Info                            : UTF-8 Plain Text
  287. Duration                                 : 1 h 41 min
  288. Bit rate                                 : 38 b/s
  289. Count of elements                        : 656
  290. Stream size                              : 28.9 KiB (0%)
  291. Title                                    : Russian
  292. Language                                 : Russian
  293. Default                                  : No
  294. Forced                                   : No
  295.  
  296. Text #16
  297. ID                                       : 19
  298. Format                                   : UTF-8
  299. Codec ID                                 : S_TEXT/UTF8
  300. Codec ID/Info                            : UTF-8 Plain Text
  301. Duration                                 : 1 h 41 min
  302. Bit rate                                 : 20 b/s
  303. Count of elements                        : 645
  304. Stream size                              : 15.5 KiB (0%)
  305. Title                                    : Hungarian
  306. Language                                 : Hungarian
  307. Default                                  : No
  308. Forced                                   : No
  309.  
  310. Text #17
  311. ID                                       : 20
  312. Format                                   : UTF-8
  313. Codec ID                                 : S_TEXT/UTF8
  314. Codec ID/Info                            : UTF-8 Plain Text
  315. Duration                                 : 1 h 41 min
  316. Bit rate                                 : 37 b/s
  317. Count of elements                        : 658
  318. Stream size                              : 28.1 KiB (0%)
  319. Title                                    : Greek
  320. Language                                 : Greek
  321. Default                                  : No
  322. Forced                                   : No
  323.  
  324. Text #18
  325. ID                                       : 21
  326. Format                                   : UTF-8
  327. Codec ID                                 : S_TEXT/UTF8
  328. Codec ID/Info                            : UTF-8 Plain Text
  329. Duration                                 : 1 h 38 min
  330. Bit rate                                 : 33 b/s
  331. Count of elements                        : 658
  332. Stream size                              : 24.3 KiB (0%)
  333. Title                                    : Hebrew
  334. Language                                 : Hebrew
  335. Default                                  : No
  336. Forced                                   : No
  337.  
  338. Text #19
  339. ID                                       : 22
  340. Format                                   : UTF-8
  341. Codec ID                                 : S_TEXT/UTF8
  342. Codec ID/Info                            : UTF-8 Plain Text
  343. Duration                                 : 1 h 38 min
  344. Bit rate                                 : 41 b/s
  345. Count of elements                        : 661
  346. Stream size                              : 30.1 KiB (0%)
  347. Title                                    : Arabic
  348. Language                                 : Arabic
  349. Default                                  : No
  350. Forced                                   : No
  351.  
  352. Text #20
  353. ID                                       : 23
  354. Format                                   : UTF-8
  355. Codec ID                                 : S_TEXT/UTF8
  356. Codec ID/Info                            : UTF-8 Plain Text
  357. Duration                                 : 1 h 38 min
  358. Bit rate                                 : 27 b/s
  359. Count of elements                        : 658
  360. Stream size                              : 20.0 KiB (0%)
  361. Title                                    : Romanian
  362. Language                                 : Romanian
  363. Default                                  : No
  364. Forced                                   : No
  365.  
  366. Text #21
  367. ID                                       : 24
  368. Format                                   : UTF-8
  369. Codec ID                                 : S_TEXT/UTF8
  370. Codec ID/Info                            : UTF-8 Plain Text
  371. Duration                                 : 1 h 41 min
  372. Bit rate                                 : 21 b/s
  373. Count of elements                        : 651
  374. Stream size                              : 15.9 KiB (0%)
  375. Title                                    : Czech
  376. Language                                 : Czech
  377. Default                                  : No
  378. Forced                                   : No
  379.  
  380. Text #22
  381. ID                                       : 25
  382. Format                                   : UTF-8
  383. Codec ID                                 : S_TEXT/UTF8
  384. Codec ID/Info                            : UTF-8 Plain Text
  385. Duration                                 : 1 h 38 min
  386. Bit rate                                 : 61 b/s
  387. Count of elements                        : 659
  388. Stream size                              : 44.8 KiB (0%)
  389. Title                                    : Hindi
  390. Language                                 : Hindi
  391. Default                                  : No
  392. Forced                                   : No
  393.  
  394. Text #23
  395. ID                                       : 26
  396. Format                                   : UTF-8
  397. Codec ID                                 : S_TEXT/UTF8
  398. Codec ID/Info                            : UTF-8 Plain Text
  399. Duration                                 : 1 h 41 min
  400. Bit rate                                 : 23 b/s
  401. Count of elements                        : 659
  402. Stream size                              : 17.1 KiB (0%)
  403. Title                                    : Indonesian
  404. Language                                 : Indonesian
  405. Default                                  : No
  406. Forced                                   : No
  407.  
  408. Text #24
  409. ID                                       : 27
  410. Format                                   : UTF-8
  411. Codec ID                                 : S_TEXT/UTF8
  412. Codec ID/Info                            : UTF-8 Plain Text
  413. Duration                                 : 1 h 38 min
  414. Bit rate                                 : 34 b/s
  415. Count of elements                        : 658
  416. Stream size                              : 24.7 KiB (0%)
  417. Title                                    : Vietnamese
  418. Language                                 : Vietnamese
  419. Default                                  : No
  420. Forced                                   : No
  421.  
  422. Text #25
  423. ID                                       : 28
  424. Format                                   : UTF-8
  425. Codec ID                                 : S_TEXT/UTF8
  426. Codec ID/Info                            : UTF-8 Plain Text
  427. Duration                                 : 1 h 38 min
  428. Bit rate                                 : 60 b/s
  429. Count of elements                        : 659
  430. Stream size                              : 43.9 KiB (0%)
  431. Title                                    : Thai
  432. Language                                 : Thai
  433. Default                                  : No
  434. Forced                                   : No
RAW Paste Data
We use cookies for various purposes including analytics. By continuing to use Pastebin, you agree to our use of cookies as described in the Cookies Policy. OK, I Understand
 
Top