Advertisement
Guest User

The Equalizer 2 2018 1080p BluRay DTS x264-MiBR

a guest
Nov 13th, 2018
231
Never
Not a member of Pastebin yet? Sign Up, it unlocks many cool features!
  1. General
  2. Unique ID : 128743898951684559314048752572884097154 (0x60DB2C4AB3078802FAF0FE87E0AC9882)
  3. Complete name : D:\Filmes\The Equalizer 2 2018 1080p BluRay DTS x264-MiBR.mkv
  4. Format : Matroska
  5. Format version : Version 4 / Version 2
  6. File size : 14.1 GiB
  7. Duration : 2 h 0 min
  8. Overall bit rate : 16.7 Mb/s
  9. Movie name : The Equalizer 2 2018 1080p BluRay DTS - @HellBoy @MiBR
  10. Encoded date : UTC 2018-11-13 22:39:18
  11. Writing application : mkvmerge v28.2.0 ('The Awakening') 64-bit
  12. Writing library : libebml v1.3.6 + libmatroska v1.4.9
  13.  
  14. Video
  15. ID : 1
  16. Format : AVC
  17. Format/Info : Advanced Video Codec
  18. Format profile : High@L4.1
  19. Format settings : CABAC / 5 Ref Frames
  20. Format settings, CABAC : Yes
  21. Format settings, RefFrames : 5 frames
  22. Codec ID : V_MPEG4/ISO/AVC
  23. Duration : 2 h 0 min
  24. Bit rate : 14.8 Mb/s
  25. Width : 1 920 pixels
  26. Height : 800 pixels
  27. Display aspect ratio : 2.40:1
  28. Frame rate mode : Constant
  29. Frame rate : 23.976 (24000/1001) FPS
  30. Color space : YUV
  31. Chroma subsampling : 4:2:0
  32. Bit depth : 8 bits
  33. Scan type : Progressive
  34. Bits/(Pixel*Frame) : 0.403
  35. Stream size : 12.5 GiB (89%)
  36. Title : The Equalizer 2 2018 1080p BluRay DTS x264-MiBR
  37. Writing library : x264 core 155 r2867+74 66b5600 t_mod_Custom_2 [8-bit@all X86_64]
  38. Encoding settings : cabac=1 / ref=5 / deblock=1:-3:-3 / analyse=0x3:0x113 / me=umh / subme=11 / psy=1 / fade_compensate=0.00 / psy_rd=1.00:0.00 / mixed_ref=1 / me_range=32 / chroma_me=1 / trellis=2 / 8x8dct=1 / cqm=0 / deadzone=21,11 / fast_pskip=0 / chroma_qp_offset=-2 / threads=12 / lookahead_threads=2 / sliced_threads=0 / nr=0 / decimate=0 / interlaced=0 / bluray_compat=0 / constrained_intra=0 / fgo=0 / bframes=8 / b_pyramid=2 / b_adapt=2 / b_bias=0 / direct=3 / weightb=1 / open_gop=0 / weightp=2 / keyint=250 / keyint_min=23 / scenecut=40 / intra_refresh=0 / rc_lookahead=60 / rc=crf / mbtree=0 / crf=16.5000 / qcomp=0.65 / qpmin=0:0:0 / qpmax=69:69:69 / qpstep=4 / vbv_maxrate=62500 / vbv_bufsize=78125 / crf_max=0.0 / nal_hrd=none / filler=0 / ip_ratio=1.30 / pb_ratio=1.20 / aq=3:0.80 / aq-sensitivity=10.00 / aq-factor=1.00:1.00:1.00 / aq2=0 / aq3=0 / zones=3129,9735,crf=16,aq-strength=0.75,ipratio=1.35,pbratio=1.25/11391,11967,crf=15.5/16302,16832,crf=15.5,aq-strength=0.75,ipratio=1.35,pbratio=1.25/19200,19345,crf=12/24050,25214,crf=15.5,aq-strength=0.75,ipratio=1.35,pbratio=1.25/33077,33989,crf=15.5,aq-strength=0.75,ipratio=1.35,pbratio=1.25/45430,46641,crf=12/47097,49000,crf=16.7/49042,49129,crf=15.5/59116,62494,crf=16.7/67903,69343,crf=16/72741,77973,crf=16.7/93300,93368,crf=12/101600,102000,crf=12/124321,129395,crf=16/161445,166066,crf=16.7/166884,173999,crf=21.5
  39. Language : English
  40. Default : Yes
  41. Forced : No
  42. Color range : Limited
  43. Color primaries : BT.709
  44. Transfer characteristics : BT.709
  45. Matrix coefficients : BT.709
  46.  
  47. Audio
  48. ID : 2
  49. Format : DTS
  50. Format/Info : Digital Theater Systems
  51. Codec ID : A_DTS
  52. Duration : 2 h 0 min
  53. Bit rate mode : Constant
  54. Bit rate : 1 509 kb/s
  55. Channel(s) : 6 channels
  56. Channel positions : Front: L C R, Side: L R, LFE
  57. Sampling rate : 48.0 kHz
  58. Frame rate : 93.750 FPS (512 SPF)
  59. Bit depth : 24 bits
  60. Compression mode : Lossy
  61. Stream size : 1.27 GiB (9%)
  62. Title : DTS Core 5.1 @1509 kbps
  63. Language : English
  64. Default : Yes
  65. Forced : No
  66.  
  67. Text #1
  68. ID : 3
  69. Format : PGS
  70. Muxing mode : zlib
  71. Codec ID : S_HDMV/PGS
  72. Codec ID/Info : Picture based subtitle format used on BDs/HD-DVDs
  73. Title : Chs
  74. Language : Chinese
  75. Default : Yes
  76. Forced : No
  77.  
  78. Text #2
  79. ID : 4
  80. Format : PGS
  81. Muxing mode : zlib
  82. Codec ID : S_HDMV/PGS
  83. Codec ID/Info : Picture based subtitle format used on BDs/HD-DVDs
  84. Title : CHT
  85. Language : Chinese
  86. Default : No
  87. Forced : No
  88.  
  89. Text #3
  90. ID : 5
  91. Format : PGS
  92. Muxing mode : zlib
  93. Codec ID : S_HDMV/PGS
  94. Codec ID/Info : Picture based subtitle format used on BDs/HD-DVDs
  95. Title : CHT
  96. Language : Chinese
  97. Default : No
  98. Forced : No
  99.  
  100. Text #4
  101. ID : 6
  102. Format : PGS
  103. Muxing mode : zlib
  104. Codec ID : S_HDMV/PGS
  105. Codec ID/Info : Picture based subtitle format used on BDs/HD-DVDs
  106. Title : CHS
  107. Language : Chinese
  108. Default : No
  109. Forced : No
  110.  
  111. Text #5
  112. ID : 7
  113. Format : PGS
  114. Muxing mode : zlib
  115. Codec ID : S_HDMV/PGS
  116. Codec ID/Info : Picture based subtitle format used on BDs/HD-DVDs
  117. Title : CHS&ENG
  118. Language : Chinese
  119. Default : No
  120. Forced : No
  121.  
  122. Text #6
  123. ID : 8
  124. Format : PGS
  125. Muxing mode : zlib
  126. Codec ID : S_HDMV/PGS
  127. Codec ID/Info : Picture based subtitle format used on BDs/HD-DVDs
  128. Title : CHT&ENG
  129. Language : Chinese
  130. Default : No
  131. Forced : No
  132.  
  133. Text #7
  134. ID : 9
  135. Format : PGS
  136. Muxing mode : zlib
  137. Codec ID : S_HDMV/PGS
  138. Codec ID/Info : Picture based subtitle format used on BDs/HD-DVDs
  139. Title : Forced
  140. Language : English
  141. Default : No
  142. Forced : No
  143.  
  144. Text #8
  145. ID : 10
  146. Format : PGS
  147. Muxing mode : zlib
  148. Codec ID : S_HDMV/PGS
  149. Codec ID/Info : Picture based subtitle format used on BDs/HD-DVDs
  150. Language : English
  151. Default : No
  152. Forced : No
  153.  
  154. Text #9
  155. ID : 11
  156. Format : PGS
  157. Muxing mode : zlib
  158. Codec ID : S_HDMV/PGS
  159. Codec ID/Info : Picture based subtitle format used on BDs/HD-DVDs
  160. Title : SDH
  161. Language : English
  162. Default : No
  163. Forced : No
  164.  
  165. Text #10
  166. ID : 12
  167. Format : PGS
  168. Muxing mode : zlib
  169. Codec ID : S_HDMV/PGS
  170. Codec ID/Info : Picture based subtitle format used on BDs/HD-DVDs
  171. Title : Brazilian
  172. Language : Portuguese
  173. Default : No
  174. Forced : No
  175.  
  176. Menu
  177. 00:00:00.000 : en:Chapter 1
  178. 00:01:31.758 : en:Chapter 2
  179. 00:01:58.577 : en:Chapter 3
  180. 00:04:54.127 : en:Chapter 4
  181. 00:05:33.041 : en:Chapter 5
  182. 00:05:51.893 : en:Chapter 6
  183. 00:06:24.092 : en:Chapter 7
  184. 00:06:55.498 : en:Chapter 8
  185. 00:07:06.635 : en:Chapter 9
  186. 00:07:35.622 : en:Chapter 10
  187. 00:07:53.765 : en:Chapter 11
  188. 00:08:09.781 : en:Chapter 12
  189. 00:08:21.793 : en:Chapter 13
  190. 00:08:38.935 : en:Chapter 14
  191. 00:09:08.840 : en:Chapter 15
  192. 00:09:44.375 : en:Chapter 16
  193. 00:11:32.233 : en:Chapter 17
  194. 00:11:41.075 : en:Chapter 18
  195. 00:12:05.725 : en:Chapter 19
  196. 00:13:03.783 : en:Chapter 20
  197. 00:15:24.674 : en:Chapter 21
  198. 00:15:58.291 : en:Chapter 22
  199. 00:16:19.186 : en:Chapter 23
  200. 00:16:54.347 : en:Chapter 24
  201. 00:17:58.327 : en:Chapter 25
  202. 00:19:33.547 : en:Chapter 26
  203. 00:20:02.993 : en:Chapter 27
  204. 00:20:55.963 : en:Chapter 28
  205. 00:23:04.633 : en:Chapter 29
  206. 00:23:50.179 : en:Chapter 30
  207. 00:23:59.688 : en:Chapter 31
  208. 00:24:13.994 : en:Chapter 32
  209. 00:24:20.709 : en:Chapter 33
  210. 00:25:47.588 : en:Chapter 34
  211. 00:28:22.617 : en:Chapter 35
  212. 00:28:39.426 : en:Chapter 36
  213. 00:31:49.908 : en:Chapter 37
  214. 00:32:04.589 : en:Chapter 38
  215. 00:32:13.640 : en:Chapter 39
  216. 00:34:11.174 : en:Chapter 40
  217. 00:35:14.571 : en:Chapter 41
  218. 00:36:09.834 : en:Chapter 42
  219. 01:31:39.244 : en:Chapter 43
  220. 01:32:20.660 : en:Chapter 44
  221. 01:32:41.014 : en:Chapter 45
  222. 01:33:19.969 : en:Chapter 46
  223. 01:34:56.524 : en:Chapter 47
  224. 01:41:27.832 : en:Chapter 48
  225. 01:41:36.382 : en:Chapter 49
  226. 01:42:24.722 : en:Chapter 50
  227. 01:46:59.496 : en:Chapter 51
Advertisement
Advertisement
Advertisement
RAW Paste Data Copied
Advertisement