SHARE
TWEET

Crocodile.Dundee.1986.International.Cut.1080p.BluRay.REMUX.AVC.FLAC.2.0-EPSiLON

a guest Jun 14th, 2019 71 Never
Not a member of Pastebin yet? Sign Up, it unlocks many cool features!
  1. General
  2. Unique ID                                : 295802782429038854947965036424627618671 (0xDE898B2B6BFE54E3669D9FD6F3EA036F)
  3. Complete name                            : Crocodile.Dundee.1986.International.Cut.1080p.BluRay.REMUX.AVC.FLAC.2.0-EPSiLON.mkv
  4. Format                                   : Matroska
  5. Format version                           : Version 4
  6. File size                                : 26.5 GiB
  7. Duration                                 : 1 h 37 min
  8. Overall bit rate mode                    : Variable
  9. Overall bit rate                         : 38.8 Mb/s
  10. Encoded date                             : UTC 2018-04-01 18:34:02
  11. Writing application                      : mkvmerge v21.0.0 ('Tardigrades Will Inherit The Earth') 64-bit
  12. Writing library                          : libebml v1.3.5 + libmatroska v1.4.8
  13.  
  14. Video
  15. ID                                       : 1
  16. Format                                   : AVC
  17. Format/Info                              : Advanced Video Codec
  18. Format profile                           : High@L4.1
  19. Format settings                          : CABAC / 4 Ref Frames
  20. Format settings, CABAC                   : Yes
  21. Format settings, Reference frames        : 4 frames
  22. Codec ID                                 : V_MPEG4/ISO/AVC
  23. Duration                                 : 1 h 37 min
  24. Bit rate mode                            : Variable
  25. Bit rate                                 : 37.3 Mb/s
  26. Maximum bit rate                         : 40.0 Mb/s
  27. Width                                    : 1 920 pixels
  28. Height                                   : 1 080 pixels
  29. Display aspect ratio                     : 16:9
  30. Frame rate mode                          : Constant
  31. Frame rate                               : 23.976 (24000/1001) FPS
  32. Color space                              : YUV
  33. Chroma subsampling                       : 4:2:0
  34. Bit depth                                : 8 bits
  35. Scan type                                : Progressive
  36. Bits/(Pixel*Frame)                       : 0.750
  37. Stream size                              : 25.5 GiB (96%)
  38. Title                                    : MPEG-4 AVC Video / 37438 kbps / 1080p / 23,976 fps / 16:9 / High Profile 4.1
  39. Language                                 : English
  40. Default                                  : Yes
  41. Forced                                   : No
  42.  
  43. Audio
  44. ID                                       : 2
  45. Format                                   : FLAC
  46. Format/Info                              : Free Lossless Audio Codec
  47. Codec ID                                 : A_FLAC
  48. Duration                                 : 1 h 37 min
  49. Bit rate mode                            : Variable
  50. Bit rate                                 : 1 412 kb/s
  51. Channel(s)                               : 2 channels
  52. Channel layout                           : L R
  53. Sampling rate                            : 48.0 kHz
  54. Frame rate                               : 11.719 FPS (4096 SPF)
  55. Bit depth                                : 24 bits
  56. Compression mode                         : Lossless
  57. Stream size                              : 987 MiB (4%)
  58. Title                                    : FLAC Audio / 2.0 / 48 kHz / 1412 kbps / 24-bit
  59. Writing library                          : libFLAC 1.2.1 (UTC 2007-09-17)
  60. Language                                 : English
  61. Default                                  : Yes
  62. Forced                                   : No
  63.  
  64. Text #1
  65. ID                                       : 3
  66. Format                                   : PGS
  67. Codec ID                                 : S_HDMV/PGS
  68. Codec ID/Info                            : Picture based subtitle format used on BDs/HD-DVDs
  69. Duration                                 : 1 h 32 min
  70. Bit rate                                 : 27.3 kb/s
  71. Count of elements                        : 1948
  72. Stream size                              : 18.1 MiB (0%)
  73. Language                                 : English
  74. Default                                  : No
  75. Forced                                   : No
  76.  
  77. Text #2
  78. ID                                       : 4
  79. Format                                   : PGS
  80. Codec ID                                 : S_HDMV/PGS
  81. Codec ID/Info                            : Picture based subtitle format used on BDs/HD-DVDs
  82. Duration                                 : 1 h 33 min
  83. Bit rate                                 : 30.8 kb/s
  84. Count of elements                        : 2346
  85. Stream size                              : 20.5 MiB (0%)
  86. Title                                    : SDH
  87. Language                                 : English
  88. Default                                  : No
  89. Forced                                   : No
  90.  
  91. Text #3
  92. ID                                       : 5
  93. Format                                   : PGS
  94. Codec ID                                 : S_HDMV/PGS
  95. Codec ID/Info                            : Picture based subtitle format used on BDs/HD-DVDs
  96. Duration                                 : 1 h 32 min
  97. Bit rate                                 : 24.8 kb/s
  98. Count of elements                        : 1436
  99. Stream size                              : 16.4 MiB (0%)
  100. Language                                 : French
  101. Default                                  : No
  102. Forced                                   : No
  103.  
  104. Text #4
  105. ID                                       : 6
  106. Format                                   : PGS
  107. Codec ID                                 : S_HDMV/PGS
  108. Codec ID/Info                            : Picture based subtitle format used on BDs/HD-DVDs
  109. Duration                                 : 1 h 32 min
  110. Bit rate                                 : 23.3 kb/s
  111. Count of elements                        : 1404
  112. Stream size                              : 15.4 MiB (0%)
  113. Title                                    : Brazilian
  114. Language                                 : Portuguese
  115. Default                                  : No
  116. Forced                                   : No
  117.  
  118. Text #5
  119. ID                                       : 7
  120. Format                                   : PGS
  121. Codec ID                                 : S_HDMV/PGS
  122. Codec ID/Info                            : Picture based subtitle format used on BDs/HD-DVDs
  123. Duration                                 : 1 h 32 min
  124. Bit rate                                 : 23.6 kb/s
  125. Count of elements                        : 1412
  126. Stream size                              : 15.6 MiB (0%)
  127. Title                                    : Latin American
  128. Language                                 : Spanish
  129. Default                                  : No
  130. Forced                                   : No
  131.  
  132. Menu
  133. 00:00:00.000                             : en:Opening Credits
  134. 00:07:18.604                             : en:A Crocodile Legend
  135. 00:13:53.582                             : en:Mind Over Matter
  136. 00:20:16.131                             : en:Stick Close to Me
  137. 00:29:51.956                             : en:Bathing with a Crocodile
  138. 00:33:00.770                             : en:A Mate of Mine
  139. 00:40:05.444                             : en:Broadening Horizons
  140. 00:50:57.471                             : en:Sightseeing
  141. 00:53:27.746                             : en:A Civilized Meal
  142. 00:57:39.497                             : en:Off Duty
  143. 01:04:50.636                             : en:Wash Day
  144. 01:11:16.230                             : en:Cure for the Common Cold
  145. 01:14:12.531                             : en:That's A Knife
  146. 01:23:52.652                             : en:A New York "Walkabout"
  147. 01:31:08.796                             : en:Subway Communication
  148. 01:34:10.311                             : en:End Credits
RAW Paste Data
We use cookies for various purposes including analytics. By continuing to use Pastebin, you agree to our use of cookies as described in the Cookies Policy. OK, I Understand
 
Top