Advertisement
Guest User

Untitled

a guest
Apr 3rd, 2017
196
Never
Not a member of Pastebin yet? Sign Up, it unlocks many cool features!
  1. BEFORE
  2.  
  3. bfdk-aac --enable-libfreetype --enable-libmp3lame --enable-libopus --enable-libtheora --enable-libvorbis --enable-libvpx --enable-libx264 --enable-libx265 --enable-nonfree
  4. libavutil 55. 57.100 / 55. 57.100
  5. libavcodec 57. 88.100 / 57. 88.100
  6. libavformat 57. 70.100 / 57. 70.100
  7. libavdevice 57. 5.100 / 57. 5.100
  8. libavfilter 6. 81.100 / 6. 81.100
  9. libswscale 4. 5.100 / 4. 5.100
  10. libswresample 2. 6.100 / 2. 6.100
  11. libpostproc 54. 4.100 / 54. 4.100
  12. Input #0, mov,mp4,m4a,3gp,3g2,mj2, from 'mdr/2.mp4':
  13. Metadata:
  14. major_brand : isom
  15. minor_version : 512
  16. compatible_brands: isomiso2avc1mp41
  17. encoder : Lavf57.63.100
  18. Duration: 00:00:30.00, start: 0.000000, bitrate: 3679 kb/s
  19. Stream #0:0(und): Video: h264 (High) (avc1 / 0x31637661), yuv420p, 1920x1080, 3503 kb/s, 60 fps, 60 tbr, 90k tbn, 120 tbc (default)
  20. Metadata:
  21. handler_name : VideoHandler
  22. Stream #0:1(und): Audio: aac (LC) (mp4a / 0x6134706D), 44100 Hz, stereo, fltp, 160 kb/s (default)
  23. Metadata:
  24. handler_name : SoundHandler
  25.  
  26.  
  27. AFTER
  28.  
  29.  
  30. bfdk-aac --enable-libfreetype --enable-libmp3lame --enable-libopus --enable-libtheora --enable-libvorbis --enable-libvpx --enable-libx264 --enable-libx265 --enable-nonfree
  31. libavutil 55. 57.100 / 55. 57.100
  32. libavcodec 57. 88.100 / 57. 88.100
  33. libavformat 57. 70.100 / 57. 70.100
  34. libavdevice 57. 5.100 / 57. 5.100
  35. libavfilter 6. 81.100 / 6. 81.100
  36. libswscale 4. 5.100 / 4. 5.100
  37. libswresample 2. 6.100 / 2. 6.100
  38. libpostproc 54. 4.100 / 54. 4.100
  39. Input #0, mov,mp4,m4a,3gp,3g2,mj2, from 'out2.mp4':
  40. Metadata:
  41. major_brand : isom
  42. minor_version : 512
  43. compatible_brands: isomiso2avc1mp41
  44. encoder : Lavf57.70.100
  45. Duration: 00:00:30.02, start: -0.013333, bitrate: 3643 kb/s
  46. Stream #0:0(und): Video: h264 (High) (avc1 / 0x31637661), yuv420p, 1920x1080, 3501 kb/s, 59.93 fps, 60 tbr, 600 tbn, 120 tbc (default)
  47. Metadata:
  48. handler_name : VideoHandler
  49. Stream #0:1(und): Audio: aac (LC) (mp4a / 0x6134706D), 48000 Hz, stereo, fltp, 131 kb/s (default)
  50. Metadata:
  51. handler_name : SoundHandler
Advertisement
RAW Paste Data Copied
Advertisement