Guest User

[HTT] Beatless - 03 (Web 1280x720 Hi10 AAC) [DF981038].mkv

a guest
Feb 5th, 2018
41
Never
Not a member of Pastebin yet? Sign Up, it unlocks many cool features!
  1. General
  2. Unique ID : 199863142786057466977487918673963508386 (0x965C3DBBD1003FEF8E28E542A5C3E2A2)
  3. Format : Matroska
  4. Format version : Version 4 / Version 2
  5. File size : 356 MiB
  6. Duration : 24 min 27 s
  7. Overall bit rate : 2 037 kb/s
  8. Encoded date : UTC 2018-01-29 21:59:36
  9. Writing application : mkvmerge v7.6.0 ('Garden of Dreams') 64bit built on Feb 8 2015 13:04:34
  10. Writing library : libebml v1.3.1 + libmatroska v1.4.2
  11. Attachments : CTMercuriusStd-Medium.otf / Flamante-Roma-Medium.ttf / PFSquareSansPro-Medium.ttf / SubClearSans-Bold.ttf / BPreplayBold.otf
  12.  
  13. Video
  14. ID : 1
  15. Format : AVC
  16. Format/Info : Advanced Video Codec
  17. Format profile : High 10@L5.1
  18. Format settings, CABAC : Yes
  19. Format settings, ReFrames : 6 frames
  20. Codec ID : V_MPEG4/ISO/AVC
  21. Duration : 24 min 27 s
  22. Bit rate : 1 898 kb/s
  23. Width : 1 280 pixels
  24. Height : 720 pixels
  25. Display aspect ratio : 16:9
  26. Frame rate mode : Constant
  27. Frame rate : 23.976 (24000/1001) FPS
  28. Color space : YUV
  29. Chroma subsampling : 4:2:0
  30. Bit depth : 10 bits
  31. Scan type : Progressive
  32. Bits/(Pixel*Frame) : 0.086
  33. Stream size : 332 MiB (93%)
  34. Title : HTT
  35. Writing library : x264 core 155 r2867+74 66b5600 t_mod_Custom_2 [10-bit@all X86_64]
  36. Encoding settings : cabac=1 / ref=6 / deblock=1:-1:-1 / analyse=0x3:0x133 / me=umh / subme=10 / psy=1 / fade_compensate=0.00 / psy_rd=0.90:0.00 / mixed_ref=1 / me_range=32 / chroma_me=1 / trellis=2 / 8x8dct=1 / cqm=0 / deadzone=21,11 / fast_pskip=0 / chroma_qp_offset=-5 / threads=6 / lookahead_threads=1 / sliced_threads=0 / nr=0 / decimate=0 / interlaced=0 / bluray_compat=0 / constrained_intra=0 / fgo=0 / bframes=12 / b_pyramid=2 / b_adapt=2 / b_bias=0 / direct=3 / weightb=1 / open_gop=0 / weightp=2 / keyint=250 / keyint_min=23 / scenecut=40 / intra_refresh=0 / rc_lookahead=50 / rc=crf / mbtree=1 / crf=14.8000 / qcomp=0.65 / qpmin=0:0:0 / qpmax=61:61:61 / qpstep=4 / ip_ratio=1.40 / aq=3:1.00 / aq-sensitivity=10.00 / aq-factor=1.00:1.00:1.00 / aq2=0 / aq3=0
  37. Language : English
  38. Default : Yes
  39. Forced : No
  40. Color range : Limited
  41. Matrix coefficients : BT.709
  42.  
  43. Audio
  44. ID : 2
  45. Format : AAC
  46. Format/Info : Advanced Audio Codec
  47. Format profile : LC
  48. Codec ID : A_AAC
  49. Duration : 24 min 27 s
  50. Bit rate : 125 kb/s
  51. Channel(s) : 2 channels
  52. Channel positions : Front: L R
  53. Sampling rate : 48.0 kHz
  54. Frame rate : 46.875 FPS (1024 spf)
  55. Compression mode : Lossy
  56. Stream size : 21.9 MiB (6%)
  57. Title : HTT
  58. Language : English
  59. Default : Yes
  60. Forced : No
  61.  
  62. Text
  63. ID : 3
  64. Format : ASS
  65. Codec ID : S_TEXT/ASS
  66. Codec ID/Info : Advanced Sub Station Alpha
  67. Duration : 24 min 22 s
  68. Bit rate : 5 140 b/s
  69. Count of elements : 5653
  70. Compression mode : Lossless
  71. Stream size : 918 KiB (0%)
  72. Title : HTT
  73. Language : English
  74. Default : Yes
  75. Forced : No
  76.  
  77. Menu
  78. 00:00:00.000 : :Prologue
  79. 00:00:39.039 : :Opening
  80. 00:02:09.003 : :Main
  81. 00:21:05.931 : :Ending
  82. 00:22:35.979 : :Epilogue
RAW Paste Data