SHARE
TWEET

Untitled

a guest Jan 11th, 2017 75 Never
Not a member of Pastebin yet? Sign Up, it unlocks many cool features!
  1. Общее
  2. Уникальный идентификатор                 : 215272743933633730545376480808326039465 (0xA1F405BA61E238BE8645EB7D7E2A87A9)
  3. Полное имя                               : F:\Video\Ben.Hur.2016.D.BDRip.1080p.ExKinoRay.mkv
  4. Формат                                   : Matroska
  5. Версия формата                           : Version 4 / Version 2
  6. Размер файла                             : 16,1 Гбайт
  7. Продолжительность                        : 2 ч. 4 м.
  8. Общий поток                              : 18,4 Мбит/сек
  9. Название фильма                          : Ben-Hur.2016 ***селезень***
  10. Дата кодирования                         : UTC 2017-01-11 20:17:55
  11. Программа кодирования                    : mkvmerge v8.3.0 ('Over the Horizon') 64bit
  12. Библиотека кодирования                   : libebml v1.3.1 + libmatroska v1.4.2
  13.  
  14. Видео
  15. Идентификатор                            : 1
  16. Формат                                   : AVC
  17. Формат/Информация                        : Advanced Video Codec
  18. Профиль формата                          : High@L4.1
  19. Параметр CABAC формата                   : Да
  20. Параметр ReFrames формата                : 5 кадров
  21. Идентификатор кодека                     : V_MPEG4/ISO/AVC
  22. Продолжительность                        : 2 ч. 4 м.
  23. Битрейт                                  : 16,5 Мбит/сек
  24. Ширина                                   : 1920 пикселей
  25. Высота                                   : 800 пикселей
  26. Соотношение сторон                       : 2,40:1
  27. Режим частоты кадров                     : Постоянный
  28. Частота кадров                           : 23,976 (24000/1001) кадра/сек
  29. Цветовое пространство                    : YUV
  30. Субдискретизация насыщенности            : 4:2:0
  31. Битовая глубина                          : 8 бит
  32. Тип развёртки                            : Прогрессивная
  33. Бит/(Пиксели*Кадры)                      : 0.449
  34. Размер потока                            : 14,4 Гбайт (90%)
  35. Заголовок                                : Ben-Hur.2016 ***селезень***
  36. Библиотека кодирования                   : x264 core 148 r2705+54 9f484c1 t_mod_Custom [8-bit@all X86_64]
  37. Настройки программы                      : cabac=1 / ref=5 / deblock=1:-3:-3 / analyse=0x3:0x133 / me=umh / subme=11 / psy=1 / fade_compensate=0.00 / psy_rd=1.05:0.00 / mixed_ref=1 / me_range=32 / chroma_me=1 / trellis=2 / 8x8dct=1 / cqm=0 / deadzone=21,11 / fast_pskip=0 / chroma_qp_offset=-2 / threads=12 / lookahead_threads=2 / sliced_threads=0 / nr=0 / decimate=0 / interlaced=0 / bluray_compat=0 / constrained_intra=0 / fgo=0 / bframes=8 / b_pyramid=2 / b_adapt=2 / b_bias=0 / direct=3 / weightb=1 / open_gop=0 / weightp=2 / keyint=250 / keyint_min=23 / scenecut=40 / intra_refresh=0 / rc_lookahead=60 / rc=crf / mbtree=0 / crf=16.1000 / qcomp=0.65 / qpmin=0:0:0 / qpmax=69:69:69 / qpstep=4 / vbv_maxrate=62500 / vbv_bufsize=78125 / crf_max=0.0 / nal_hrd=none / filler=0 / ip_ratio=1.30 / pb_ratio=1.20 / aq=3:0.80 / aq-sensitivity=10.00 / aq-factor=1.00:1.00:1.00 / aq2=0 / aq3=0 / zones=66,882,crf=14/16441,16922,crf=13/16981,18160,crf=16.4/18309,22454,crf=16.4/22455,22607,crf=14/27836,28926,crf=16.4/30555,31865,crf=13/47649,49327,crf=16.4/49969,50030,crf=14/50132,50177,crf=14/50360,50414,crf=14/50602,50636,crf=14/58332,60663,crf=16.4/62332,64565,crf=14/64566,64636,crf=13/64695,64926,crf=14/64927,73042,crf=14/73043,73093,crf=13/73094,73276,crf=14/73277,73338,crf=13/73339,74403,crf=14/74404,74435,crf=13/74436,74494,crf=15/74495,74544,crf=14/74545,75984,crf=14/75985,76113,crf=12/77000,77596,crf=13/77685,78411,crf=13/78685,78872,crf=13/79045,79140,crf=13/82322,90341,crf=16.4/92347,96172,crf=16.4/108707,111642,crf=16.4/119450,120388,crf=16.4/127836,127935,crf=13/129352,130682,crf=15/131000,131085,crf=14/132059,138635,crf=16.4/138636,138667,crf=13/145112,145146,crf=13/146413,146452,crf=13/148874,148944,crf=13/149019,149075,crf=10/149807,149855,crf=13/156927,159267,crf=16.4/159855,160004,crf=14/163497,163583,crf=13/167550,172075,crf=16.4/172510,172552,crf=13/172560,179130,crf=22
  38. Язык                                     : English
  39. Default                                  : Да
  40. Forced                                   : Нет
  41. Цветовой диапазон                        : Limited
  42. Коэффициенты матрицы                     : BT.709
  43.  
  44. Аудио #1
  45. Идентификатор                            : 2
  46. Формат                                   : AC-3
  47. Формат/Информация                        : Audio Coding 3
  48. Расширение режима                        : CM (complete main)
  49. Параметр Endianness формата              : Big
  50. Идентификатор кодека                     : A_AC3
  51. Продолжительность                        : 2 ч. 3 м.
  52. Вид битрейта                             : Постоянный
  53. Битрейт                                  : 384 Кбит/сек
  54. Каналы                                   : 6 каналов
  55. Расположение каналов                     : Front: L C R, Side: L R, LFE
  56. Частота                                  : 48,0 КГц
  57. Частота кадров                           : 31,250 кадров/сек (1536 spf)
  58. Битовая глубина                          : 16 бит
  59. Метод сжатия                             : С потерями
  60. Размер потока                            : 339 Мбайт (2%)
  61. Заголовок                                : iTunes
  62. Язык                                     : Russian
  63. Default                                  : Да
  64. Forced                                   : Нет
  65.  
  66. Аудио #2
  67. Идентификатор                            : 3
  68. Формат                                   : DTS
  69. Формат/Информация                        : Digital Theater Systems
  70. Режим                                    : 16
  71. Параметр Endianness формата              : Big
  72. Идентификатор кодека                     : A_DTS
  73. Продолжительность                        : 2 ч. 4 м.
  74. Вид битрейта                             : Постоянный
  75. Битрейт                                  : 1509 Кбит/сек
  76. Каналы                                   : 6 каналов
  77. Расположение каналов                     : Front: L C R, Side: L R, LFE
  78. Частота                                  : 48,0 КГц
  79. Частота кадров                           : 93,750 кадра/сек (512 spf)
  80. Битовая глубина                          : 24 бит
  81. Метод сжатия                             : С потерями
  82. Размер потока                            : 1,31 Гбайт (8%)
  83. Заголовок                                : Original
  84. Язык                                     : English
  85. Default                                  : Нет
  86. Forced                                   : Нет
  87.  
  88. Текст #1
  89. Идентификатор                            : 4
  90. Формат                                   : UTF-8
  91. Идентификатор кодека                     : S_TEXT/UTF8
  92. Идентификатор кодека/Информация          : UTF-8 Plain Text
  93. Продолжительность                        : 1 ч. 56 м.
  94. Битрейт                                  : 45 бит/сек
  95. Count of elements                        : 1438
  96. Размер потока                            : 38,6 Кбайт (0%)
  97. Заголовок                                : Full
  98. Язык                                     : English
  99. Default                                  : Нет
  100. Forced                                   : Нет
  101.  
  102. Текст #2
  103. Идентификатор                            : 5
  104. Формат                                   : UTF-8
  105. Идентификатор кодека                     : S_TEXT/UTF8
  106. Идентификатор кодека/Информация          : UTF-8 Plain Text
  107. Продолжительность                        : 1 ч. 56 м.
  108. Битрейт                                  : 51 бит/сек
  109. Count of elements                        : 1644
  110. Размер потока                            : 44,3 Кбайт (0%)
  111. Заголовок                                : SDH
  112. Язык                                     : English
  113. Default                                  : Нет
  114. Forced                                   : Нет
  115.  
  116. Меню
  117. 00:00:00.000                             : en:00:00:00.000
  118. 00:07:03.882                             : en:00:07:03.882
  119. 00:15:42.942                             : en:00:15:42.942
  120. 00:19:47.895                             : en:00:19:47.895
  121. 00:27:25.853                             : en:00:27:25.853
  122. 00:33:09.362                             : en:00:33:09.362
  123. 00:41:07.215                             : en:00:41:07.215
  124. 00:48:20.064                             : en:00:48:20.064
  125. 00:55:21.652                             : en:00:55:21.652
  126. 01:05:41.229                             : en:01:05:41.229
  127. 01:13:15.891                             : en:01:13:15.891
  128. 01:22:26.900                             : en:01:22:26.900
  129. 01:31:30.193                             : en:01:31:30.193
  130. 01:39:55.656                             : en:01:39:55.656
  131. 01:46:30.801                             : en:01:46:30.801
  132. 01:54:54.638                             : en:01:54:54.638
RAW Paste Data
Pastebin PRO Summer Special!
Get 40% OFF on Pastebin PRO accounts!
Top