HYBRID_BEING

[Asenshi-GJM] Rewrite - 02 [FC61A654].mkv

Jul 17th, 2016
75
Never
Not a member of Pastebin yet? Sign Up, it unlocks many cool features!
  1. General
  2. Unique ID : 233721996003082932568369223633750171073 (0xAFD5381564926D1290F3B6D97ABB9DC1)
  3. Complete name : [Asenshi-GJM] Rewrite - 02 [FC61A654].mkv
  4. Format : Matroska
  5. Format version : Version 4 / Version 2
  6. File size : 250 MiB
  7. Duration : 23 min
  8. Overall bit rate : 1 457 kb/s
  9. Encoded date : UTC 2016-07-10 09:51:14
  10. Writing application : mkvmerge v9.2.0 ('Photograph') 32bit
  11. Writing library : libebml v1.3.3 + libmatroska v1.4.4
  12. Attachments : Dominican.ttf / Frank Reaction Web.otf / IwaOMinPro-Bd-Fate.ttf / KozMinPro-Regular stripped v3.ttf / LEHN075.TTF / AlegreyaSubSans-Bold.otf / AlegreyaSubSans-BoldItalic.otf / CentraleSansRnd-Bold.ttf
  13.  
  14. Video
  15. ID : 1
  16. Format : AVC
  17. Format/Info : Advanced Video Codec
  18. Format profile : High 10@L5
  19. Format settings, CABAC : Yes
  20. Format settings, ReFrames : 16 frames
  21. Codec ID : V_MPEG4/ISO/AVC
  22. Duration : 23 min
  23. Bit rate : 1 181 kb/s
  24. Width : 1 280 pixels
  25. Height : 720 pixels
  26. Display aspect ratio : 16:9
  27. Frame rate mode : Constant
  28. Frame rate : 23.976 (24000/1001) FPS
  29. Color space : YUV
  30. Chroma subsampling : 4:2:0
  31. Bit depth : 10 bits
  32. Scan type : Progressive
  33. Bits/(Pixel*Frame) : 0.053
  34. Stream size : 203 MiB (81%)
  35. Writing library : x264 core 144 r2525kMod 40bb568
  36. Encoding settings : cabac=1 / ref=16 / deblock=1:0:0 / analyse=0x3:0x133 / me=umh / subme=10 / psy=1 / fade_compensate=0.80 / psy_rd=0.80:0.00 / mixed_ref=1 / me_range=24 / chroma_me=1 / trellis=2 / 8x8dct=1 / cqm=0 / deadzone=21,11 / fast_pskip=1 / chroma_qp_offset=-2 / threads=12 / lookahead_threads=3 / sliced_threads=0 / nr=0 / decimate=1 / interlaced=0 / bluray_compat=0 / constrained_intra=0 / fgo=0 / bframes=16 / b_pyramid=2 / b_adapt=2 / b_bias=0 / direct=3 / weightb=1 / open_gop=0 / weightp=2 / keyint=250 / keyint_min=23 / scenecut=40 / intra_refresh=0 / rc_lookahead=60 / rc=crf / mbtree=1 / crf=16.0000 / qcomp=0.68 / qpmin=0 / qpmax=81 / qpstep=4 / ip_ratio=1.40 / aq=3:0.80
  37. Language : Japanese
  38. Default : Yes
  39. Forced : No
  40. Color range : Limited
  41. Matrix coefficients : BT.709
  42.  
  43. Audio
  44. ID : 2
  45. Format : AAC
  46. Format/Info : Advanced Audio Codec
  47. Format profile : LC
  48. Codec ID : A_AAC
  49. Duration : 23 min
  50. Bit rate : 252 kb/s
  51. Channel(s) : 2 channels
  52. Channel positions : Front: L R
  53. Sampling rate : 48.0 kHz
  54. Frame rate : 46.875 FPS (1024 spf)
  55. Compression mode : Lossy
  56. Stream size : 43.3 MiB (17%)
  57. Language : Japanese
  58. Default : Yes
  59. Forced : No
  60.  
  61. Text
  62. ID : 3
  63. Format : ASS
  64. Codec ID : S_TEXT/ASS
  65. Codec ID/Info : Advanced Sub Station Alpha
  66. Duration : 23 min
  67. Bit rate : 279 b/s
  68. Count of elements : 556
  69. Compression mode : Lossless
  70. Stream size : 49.1 KiB (0%)
  71. Title : Honorifics
  72. Language : English
  73. Default : Yes
  74. Forced : No
  75.  
  76. Menu
  77. 00:00:00.000 : :Intro
  78. 00:02:24.895 : :OP
  79. 00:03:54.985 : :Part A
  80. 00:13:36.983 : :Part B
  81. 00:22:29.890 : :ED
RAW Paste Data