GrabHD

Untitled

Mar 2nd, 2020
99
Never
Not a member of Pastebin yet? Sign Up, it unlocks many cool features!
  1. Формат : Matroska
  2. Версия формата : Version 2
  3. Размер файла : 7,77 Гбайт
  4. Продолжительность : 1 ч. 32 м.
  5. Общий поток : 12,0 Мбит/сек
  6. Название фильма : ~V~
  7. Дата кодирования : UTC 2015-09-04 05:18:14
  8. Программа кодирования : mkvmerge v6.5.0 ('Isn't she lovely') built on Oct 20 2013 12:50:05
  9. Библиотека кодирования : libebml v1.3.0 + libmatroska v1.4.1
  10. Attachements : cover.jpg
  11.  
  12. Видео
  13. Идентификатор : 1
  14. Формат : AVC
  15. Формат/Информация : Advanced Video Codec
  16. Профиль формата : High@L4.1
  17. Параметр CABAC формата : Да
  18. Параметр ReFrames формата : 5 кадров
  19. Идентификатор кодека : V_MPEG4/ISO/AVC
  20. Продолжительность : 1 ч. 32 м.
  21. Битрейт : 8550 Кбит/сек
  22. Ширина : 1920 пикселей
  23. Высота : 804 пикселя
  24. Соотношение сторон : 2,40:1
  25. Режим частоты кадров : Постоянный
  26. Частота кадров : 23,976 кадра/сек
  27. Цветовое пространство : YUV
  28. Субдискретизация насыщенности : 4:2:0
  29. Битовая глубина : 8 бит
  30. Тип развёртки : Прогрессивная
  31. Бит/(Пиксели*Кадры) : 0.231
  32. Размер потока : 5,37 Гбайт (69%)
  33. Заголовок : ~Vad~
  34. Библиотека кодирования : x264 core 142 r0+4281 a3bf0d5 Test [8-bit@all X86_64]
  35. Настройки программы : cabac=1 / ref=5 / deblock=1:-3:-3 / analyse=0x3:0x133 / me=umh / subme=11 / psy=1 / fade_compensate=0.00 / psy_rd=1.05:0.00 / mixed_ref=1 / me_range=32 / chroma_me=0 / trellis=2 / 8x8dct=1 / cqm=0 / deadzone=21,11 / fast_pskip=1 / chroma_qp_offset=-2 / threads=12 / lookahead_threads=1 / sliced_threads=0 / nr=0 / decimate=0 / interlaced=0 / bluray_compat=0 / constrained_intra=0 / fgo=0 / bframes=10 / b_pyramid=2 / b_adapt=2 / b_bias=0 / direct=3 / weightb=1 / open_gop=0 / weightp=2 / keyint=240 / keyint_min=23 / scenecut=40 / intra_refresh=0 / rc=2pass / mbtree=0 / bitrate=8550 / ratetol=1.0 / qcomp=0.60 / qpmin=0:0:0 / qpmax=69:69:69 / qpstep=4 / cplxblur=20.0 / qblur=0.5 / ip_ratio=1.40 / pb_ratio=1.30 / aq=4:0.70 / aq-sensitivity=9.00 / aq-factor=1.00:1.00:1.00 / aq2=1:0.70 / aq2-sensitivity=14.00 / aq2-factor=1.00:1.00:1.00 / aq3=1:[0.60:0.60]:[0.60:0.60]:[0.60:0.60]:[0.60:0.60] / aq3-sensitivity=10.00 / aq3-factor=[1.00:1.00]:[1.00:1.00]:[1.00:1.00] / aq3-boundary=192:64:24
  36. Язык : English
  37. Default : Да
  38. Forced : Нет
  39.  
  40. Аудио #1
  41. Идентификатор : 2
  42. Формат : AC-3
  43. Формат/Информация : Audio Coding 3
  44. Расширение режима : CM (complete main)
  45. Параметр Endianness формата : Big
  46. Идентификатор кодека : A_AC3
  47. Продолжительность : 1 ч. 32 м.
  48. Вид битрейта : Постоянный
  49. Битрейт : 448 Кбит/сек
  50. Каналы : 6 каналов
  51. Расположение каналов : Front: L C R, Side: L R, LFE
  52. Частота : 48,0 КГц
  53. Метод сжатия : С потерями
  54. Размер потока : 297 Мбайт (4%)
  55. Заголовок : Dub: AC3, 6 ch, 448 Кбит/с
  56. Язык : Russian
  57. Default : Да
  58. Forced : Нет
  59.  
  60. Аудио #2
  61. Идентификатор : 3
  62. Формат : DTS
  63. Формат/Информация : Digital Theater Systems
  64. Режим : 16
  65. Параметр Endianness формата : Big
  66. Идентификатор кодека : A_DTS
  67. Продолжительность : 1 ч. 32 м.
  68. Вид битрейта : Постоянный
  69. Битрейт : 1510 Кбит/сек
  70. Каналы : 6 каналов
  71. Расположение каналов : Front: L C R, Side: L R, LFE
  72. Частота : 48,0 КГц
  73. Битовая глубина : 24 бит
  74. Метод сжатия : С потерями
  75. Размер потока : 999 Мбайт (13%)
  76. Заголовок : R.A.I.M & GUGU: DTS, 6 ch, 1510 Кбит/с
  77. Язык : Russian
  78. Default : Нет
  79. Forced : Нет
  80.  
  81. Аудио #3
  82. Идентификатор : 4
  83. Формат : DTS
  84. Формат/Информация : Digital Theater Systems
  85. Режим : 16
  86. Параметр Endianness формата : Big
  87. Идентификатор кодека : A_DTS
  88. Продолжительность : 1 ч. 32 м.
  89. Вид битрейта : Постоянный
  90. Битрейт : 1509 Кбит/сек
  91. Каналы : 6 каналов
  92. Расположение каналов : Front: L C R, Side: L R, LFE
  93. Частота : 48,0 КГц
  94. Битовая глубина : 24 бит
  95. Метод сжатия : С потерями
  96. Размер потока : 999 Мбайт (13%)
  97. Заголовок : DTS, 6 ch, 1509 Кбит/с
  98. Язык : English
  99. Default : Нет
  100. Forced : Нет
  101.  
  102. Текст #1
  103. Идентификатор : 5
  104. Формат : UTF-8
  105. Идентификатор кодека : S_TEXT/UTF8
  106. Идентификатор кодека/Информация : UTF-8 Plain Text
  107. Язык : Russian
  108. Default : Нет
  109. Forced : Нет
  110.  
  111. Текст #2
  112. Идентификатор : 6
  113. Формат : UTF-8
  114. Идентификатор кодека : S_TEXT/UTF8
  115. Идентификатор кодека/Информация : UTF-8 Plain Text
  116. Язык : English
  117. Default : Нет
  118. Forced : Нет
  119.  
  120. Меню
  121. 00:00:00.000 : en:Chapter 0
  122. 00:05:10.601 : en:Chapter 0
  123. 00:10:52.610 : en:Chapter 0
  124. 00:16:12.972 : en:Chapter 0
  125. 00:23:14.685 : en:Chapter 0
  126. 00:28:38.926 : en:Chapter 0
  127. 00:35:55.527 : en:Chapter 0
  128. 00:40:40.897 : en:Chapter 0
  129. 00:48:50.177 : en:Chapter 0
  130. 00:56:12.077 : en:Chapter 0
  131. 01:03:46.823 : en:Chapter 0
  132. 01:11:24.447 : en:Chapter 0
  133. 01:15:58.262 : en:Chapter 0
  134. 01:22:09.716 : en:Chapter 0
  135. 01:28:21.296 : en:Chapter 0
RAW Paste Data