SHARE
TWEET

A Royal Winter WEB-DL 720p

dirtyharrys Mar 29th, 2019 71 Never
Not a member of Pastebin yet? Sign Up, it unlocks many cool features!
  1. General
  2. Unique ID                   : 308527494043032257404725196258155708143 (0xE81C3BE3C81E0509C4B03C1CD0403EEF)
  3. Complete name               : C:\V0VCQVJveWFsV2ludGVy.mkv
  4. Format                      : Matroska
  5. Format version              : Version 4
  6. File size                   : 1.03 GiB
  7. Duration                    : 1 h 23 min
  8. Overall bit rate            : 1 756 kb/s
  9. Movie name                  : A Royal Winter WEB-RIP / A Royal Winter WEB-RIP
  10. Encoded date                : UTC 2019-03-29 06:29:51
  11. Writing application         : mkvmerge v30.1.0 ('Forever And More') 32-bit
  12. Writing library             : libebml v1.3.6 + libmatroska v1.4.9
  13. Copyright                   : Movies HDs 2019
  14. ARTIST                      : HarshLearner
  15.  
  16. Video
  17. ID                          : 1
  18. Format                      : AVC
  19. Format/Info                 : Advanced Video Codec
  20. Format profile              : High@L4.1
  21. Format settings             : CABAC / 4 Ref Frames
  22. Format settings, CABAC      : Yes
  23. Format settings, ReFrames   : 4 frames
  24. Codec ID                    : V_MPEG4/ISO/AVC
  25. Duration                    : 1 h 23 min
  26. Bit rate                    : 1 050 kb/s
  27. Width                       : 1 280 pixels
  28. Height                      : 714 pixels
  29. Display aspect ratio        : 16:9
  30. Original display aspect rat : 16:9
  31. Frame rate mode             : Constant
  32. Frame rate                  : 23.976 (24000/1001) FPS
  33. Color space                 : YUV
  34. Chroma subsampling          : 4:2:0
  35. Bit depth                   : 8 bits
  36. Scan type                   : Progressive
  37. Bits/(Pixel*Frame)          : 0.048
  38. Stream size                 : 630 MiB (60%)
  39. Title                       : A Royal Winter
  40. Writing library             : x264 core 157
  41. Default                     : Yes
  42. Forced                      : No
  43.  
  44. Audio #1
  45. ID                          : 2
  46. Format                      : AC-3
  47. Format/Info                 : Audio Coding 3
  48. Commercial name             : Dolby Digital
  49. Codec ID                    : A_AC3
  50. Duration                    : 1 h 23 min
  51. Bit rate mode               : Constant
  52. Bit rate                    : 448 kb/s
  53. Channel(s)                  : 6 channels
  54. Channel layout              : L R C LFE Ls Rs
  55. Sampling rate               : 48.0 kHz
  56. Frame rate                  : 31.250 FPS (1536 SPF)
  57. Bit depth                   : 16 bits
  58. Compression mode            : Lossy
  59. Stream size                 : 269 MiB (26%)
  60. Language                    : English
  61. Service kind                : Complete Main
  62. Default                     : No
  63. Forced                      : No
  64.  
  65. Audio #2
  66. ID                          : 3
  67. Format                      : AC-3
  68. Format/Info                 : Audio Coding 3
  69. Commercial name             : Dolby Digital
  70. Codec ID                    : A_AC3
  71. Duration                    : 1 h 23 min
  72. Bit rate mode               : Constant
  73. Bit rate                    : 256 kb/s
  74. Channel(s)                  : 2 channels
  75. Channel layout              : L R
  76. Sampling rate               : 48.0 kHz
  77. Frame rate                  : 31.250 FPS (1536 SPF)
  78. Bit depth                   : 16 bits
  79. Compression mode            : Lossy
  80. Stream size                 : 154 MiB (15%)
  81. Language                    : Spanish
  82. Service kind                : Complete Main
  83. Default                     : Yes
  84. Forced                      : Yes
  85.  
  86. Text #1
  87. ID                          : 4
  88. Format                      : UTF-8
  89. Codec ID                    : S_TEXT/UTF8
  90. Codec ID/Info               : UTF-8 Plain Text
  91. Duration                    : 1 h 23 min
  92. Bit rate                    : 79 b/s
  93. Count of elements           : 1556
  94. Stream size                 : 48.7 KiB (0%)
  95. Language                    : English
  96. Default                     : No
  97. Forced                      : No
  98.  
  99. Text #2
  100. ID                          : 5
  101. Format                      : UTF-8
  102. Codec ID                    : S_TEXT/UTF8
  103. Codec ID/Info               : UTF-8 Plain Text
  104. Duration                    : 1 h 22 min
  105. Bit rate                    : 77 b/s
  106. Count of elements           : 1321
  107. Stream size                 : 46.7 KiB (0%)
  108. Language                    : Spanish
  109. Default                     : Yes
  110. Forced                      : Yes
  111.  
  112. Text #3
  113. ID                          : 6
  114. Format                      : UTF-8
  115. Codec ID                    : S_TEXT/UTF8
  116. Codec ID/Info               : UTF-8 Plain Text
  117. Duration                    : 1 h 1 min
  118. Bit rate                    : 0 b/s
  119. Count of elements           : 6
  120. Stream size                 : 237 Bytes (0%)
  121. Language                    : Spanish
  122. Default                     : No
  123. Forced                      : No
RAW Paste Data
We use cookies for various purposes including analytics. By continuing to use Pastebin, you agree to our use of cookies as described in the Cookies Policy. OK, I Understand
 
Top