iMN0

Rollercoaster.1977.1080p.BluRay.x264-PSYCHD.mkv

Jul 7th, 2021
76
Never
Not a member of Pastebin yet? Sign Up, it unlocks many cool features!
  1. General
  2. Unique ID : 0 (0x0)
  3. Complete name : Rollercoaster.1977.1080p.BluRay.x264-PSYCHD.mkv
  4. Format : Matroska
  5. Format version : Version 4
  6. File size : 8.75 GiB
  7. Duration : 1 h 58 min
  8. Overall bit rate : 10.6 Mb/s
  9. Encoded date : UTC 2010-02-22 21:41:29
  10. Writing application : no_variable_data
  11. Writing library : no_variable_data
  12.  
  13. Video
  14. ID : 1
  15. Format : AVC
  16. Format/Info : Advanced Video Codec
  17. Format profile : High@L4.1
  18. Format settings : CABAC / 5 Ref Frames
  19. Format settings, CABAC : Yes
  20. Format settings, Reference frames : 5 frames
  21. Codec ID : V_MPEG4/ISO/AVC
  22. Duration : 1 h 58 min
  23. Bit rate : 10.4 Mb/s
  24. Width : 1 920 pixels
  25. Height : 816 pixels
  26. Display aspect ratio : 2.35:1
  27. Frame rate mode : Constant
  28. Frame rate : 23.976 (24000/1001) FPS
  29. Color space : YUV
  30. Chroma subsampling : 4:2:0
  31. Bit depth : 8 bits
  32. Scan type : Progressive
  33. Bits/(Pixel*Frame) : 0.276
  34. Stream size : 8.41 GiB (96%)
  35. Writing library : x264 core 148 r2665 a01e339
  36. Encoding settings : cabac=1 / ref=5 / deblock=1:-3:-3 / analyse=0x3:0x113 / me=umh / subme=8 / psy=1 / psy_rd=1.10:0.00 / mixed_ref=1 / me_range=32 / chroma_me=1 / trellis=1 / 8x8dct=1 / cqm=0 / deadzone=21,11 / fast_pskip=1 / chroma_qp_offset=-2 / threads=12 / lookahead_threads=2 / sliced_threads=0 / nr=0 / decimate=1 / interlaced=0 / bluray_compat=0 / constrained_intra=0 / bframes=3 / b_pyramid=2 / b_adapt=2 / b_bias=0 / direct=3 / weightb=1 / open_gop=0 / weightp=2 / keyint=240 / keyint_min=24 / scenecut=40 / intra_refresh=0 / rc_lookahead=50 / rc=2pass / mbtree=1 / bitrate=10372 / ratetol=1.0 / qcomp=0.60 / qpmin=0 / qpmax=69 / qpstep=4 / cplxblur=20.0 / qblur=0.5 / ip_ratio=1.40 / aq=3:0.80
  37. Language : English
  38. Default : Yes
  39. Forced : No
  40. Statistics Tags Issue : no_variable_data 1970-01-01 00:00:00 / no_variable_data 2010-02-22 21:41:29
  41. FromStats_BitRate : 10373063
  42. FromStats_Duration : 01:58:29.394000000
  43. FromStats_FrameCount : 170455
  44. FromStats_StreamSize : 9218274508
  45.  
  46. Audio
  47. ID : 2
  48. Format : AC-3
  49. Format/Info : Audio Coding 3
  50. Commercial name : Dolby Digital
  51. Codec ID : A_AC3
  52. Duration : 1 h 58 min
  53. Bit rate mode : Constant
  54. Bit rate : 192 kb/s
  55. Channel(s) : 2 channels
  56. Channel layout : L R
  57. Sampling rate : 48.0 kHz
  58. Frame rate : 31.250 FPS (1536 SPF)
  59. Compression mode : Lossy
  60. Stream size : 163 MiB (2%)
  61. Language : English
  62. Service kind : Complete Main
  63. Default : Yes
  64. Forced : No
  65. Statistics Tags Issue : no_variable_data 1970-01-01 00:00:00 / no_variable_data 2010-02-22 21:41:29
  66. FromStats_BitRate : 191988
  67. FromStats_Duration : 01:58:30.496000000
  68. FromStats_FrameCount : 222203
  69. FromStats_StreamSize : 170641664
  70.  
  71. Menu
  72. 00:00:00.000 : en:00:00:00.000
  73. 00:00:00.375 : en:00:00:00.375
  74. 00:15:09.575 : en:00:15:09.575
  75. 00:30:38.545 : en:00:30:38.545
  76. 00:47:34.727 : en:00:47:34.727
  77. 01:05:44.941 : en:01:05:44.941
  78. 01:22:35.826 : en:01:22:35.826
  79. 01:37:27.592 : en:01:37:27.592
  80. 01:47:45.918 : en:01:47:45.918
RAW Paste Data