SHARE
TWEET

YoujoSenkiB5.MediaInfo

yuuta_dono Aug 24th, 2019 239 Never
Not a member of Pastebin yet? Sign Up, it unlocks many cool features!
  1. General
  2. Complete name                            : [Mabors-Sub][Youjo Senki][Movie][1080P][BIG5][BDrip][AVC AAC YUV420P8].mp4
  3. Format                                   : MPEG-4
  4. Format profile                           : Base Media
  5. Codec ID                                 : isom (isom/avc1)
  6. File size                                : 2.15 GiB
  7. Duration                                 : 1 h 38 min
  8. Overall bit rate mode                    : Variable
  9. Overall bit rate                         : 3 132 kb/s
  10. Encoded date                             : UTC 2019-08-25 03:01:57
  11. Tagged date                              : UTC 2019-08-25 03:01:57
  12.  
  13. Video
  14. ID                                       : 1
  15. Format                                   : AVC
  16. Format/Info                              : Advanced Video Codec
  17. Format profile                           : High@L5.1
  18. Format settings                          : CABAC / 9 Ref Frames
  19. Format settings, CABAC                   : Yes
  20. Format settings, Reference frames        : 9 frames
  21. Codec ID                                 : avc1
  22. Codec ID/Info                            : Advanced Video Coding
  23. Duration                                 : 1 h 38 min
  24. Bit rate                                 : 2 861 kb/s
  25. Maximum bit rate                         : 20.0 Mb/s
  26. Width                                    : 1 920 pixels
  27. Height                                   : 1 080 pixels
  28. Display aspect ratio                     : 16:9
  29. Frame rate mode                          : Constant
  30. Frame rate                               : 23.976 (24000/1001) FPS
  31. Color space                              : YUV
  32. Chroma subsampling                       : 4:2:0
  33. Bit depth                                : 8 bits
  34. Scan type                                : Progressive
  35. Bits/(Pixel*Frame)                       : 0.058
  36. Stream size                              : 1.97 GiB (91%)
  37. Encoded date                             : UTC 2019-08-25 03:01:57
  38. Tagged date                              : UTC 2019-08-25 03:03:22
  39. Codec configuration box                  : avcC
  40.  
  41. Audio
  42. ID                                       : 2
  43. Format                                   : AAC LC
  44. Format/Info                              : Advanced Audio Codec Low Complexity
  45. Codec ID                                 : mp4a-40-2
  46. Duration                                 : 1 h 38 min
  47. Bit rate mode                            : Variable
  48. Bit rate                                 : 265 kb/s
  49. Maximum bit rate                         : 364 kb/s
  50. Channel(s)                               : 2 channels
  51. Channel layout                           : L R
  52. Sampling rate                            : 48.0 kHz
  53. Frame rate                               : 46.875 FPS (1024 SPF)
  54. Compression mode                         : Lossy
  55. Stream size                              : 188 MiB (9%)
  56. Encoded date                             : UTC 2019-08-25 03:00:37
  57. Tagged date                              : UTC 2019-08-25 03:03:22
RAW Paste Data
We use cookies for various purposes including analytics. By continuing to use Pastebin, you agree to our use of cookies as described in the Cookies Policy. OK, I Understand
 
Top