Advertisement
Guest User

Untitled

a guest
Feb 28th, 2022
197
Never
Not a member of Pastebin yet? Sign Up, it unlocks many cool features!
  1. General
  2. Unique ID : 134583994680561274329905935125095369993 (0x653FEF3DF39417D2922C6615409FCD09)
  3. Complete name : C:\Users\Lenovo\Documents\_BUNNY~1\THEWOR~2.MKV
  4. Format : Matroska
  5. Format version : Version 4
  6. File size : 1.06 GiB
  7. Duration : 23 min 41 s
  8. Overall bit rate mode : Variable
  9. Overall bit rate : 6 430 kb/s
  10. Encoded date : UTC 2022-02-28 22:56:00
  11. Writing application : mkvmerge v58.0.0 ('Supper's Ready') 64-bit
  12. Writing library : libebml v1.4.2 + libmatroska v1.6.4
  13. Cover : Yes
  14. Attachments : Finnegan_LT_W04_Bold.ttf / Finnegan_LT_W04_Bold_Italic.ttf / Fontin_Sans.otf / FOT-Skip Std E.ttf / GandhiSansBold.otf / GandhiSansBoldItalic.otf / GandhiSans-Regular.otf / InkcantationBB-Reg.otf / StrawberryCupcakes.ttf / timesbd.ttf / arial.ttf / arialbd.ttf / Assassin.ttf / calligraph421_bt_roman.ttf / cover.jpg
  15.  
  16. Video
  17. ID : 1
  18. Format : AVC
  19. Format/Info : Advanced Video Codec
  20. Format profile : High@L4
  21. Format settings : CABAC / 4 Ref Frames
  22. Format settings, CABAC : Yes
  23. Format settings, Reference : 4 frames
  24. Codec ID : V_MPEG4/ISO/AVC
  25. Duration : 23 min 41 s
  26. Bit rate : 4 826 kb/s
  27. Width : 1 920 pixels
  28. Height : 1 080 pixels
  29. Display aspect ratio : 16:9
  30. Frame rate mode : Constant
  31. Frame rate : 23.976 (24000/1001) FPS
  32. Color space : YUV
  33. Chroma subsampling : 4:2:0
  34. Bit depth : 8 bits
  35. Scan type : Progressive
  36. Bits/(Pixel*Frame) : 0.097
  37. Stream size : 818 MiB (75%)
  38. Writing library : x264 core 157
  39. Encoding settings : opencl=1 / cabac=1 / ref=4 / deblock=1:-2:-2 / analyse=0x3:0x113 / me=umh / subme=9 / psy=1 / psy_rd=0.70:0.00 / mixed_ref=0 / me_range=32 / chroma_me=1 / trellis=2 / 8x8dct=1 / cqm=0 / deadzone=21,11 / fast_pskip=1 / chroma_qp_offset=-2 / threads=8 / lookahead_threads=1 / sliced_threads=0 / nr=0 / decimate=1 / interlaced=0 / bluray_compat=0 / constrained_intra=0 / bframes=9 / b_pyramid=2 / b_adapt=2 / b_bias=0 / direct=3 / weightb=1 / open_gop=0 / weightp=2 / keyint=250 / keyint_min=23 / scenecut=40 / intra_refresh=0 / rc_lookahead=40 / rc=crf / mbtree=1 / crf=16.0 / qcomp=0.70 / qpmin=10 / qpmax=20 / qpstep=4 / ip_ratio=1.40 / aq=1:1.00
  40. Default : Yes
  41. Forced : No
  42.  
  43. Audio #1
  44. ID : 2
  45. Format : AAC LC
  46. Format/Info : Advanced Audio Codec Low Complexity
  47. Codec ID : A_AAC-2
  48. Duration : 23 min 40 s
  49. Bit rate : 128 kb/s
  50. Channel(s) : 2 channels
  51. Channel layout : L R
  52. Sampling rate : 44.1 kHz
  53. Frame rate : 43.066 FPS (1024 SPF)
  54. Compression mode : Lossy
  55. Stream size : 21.7 MiB (2%)
  56. Language : English
  57. Default : Yes
  58. Forced : No
  59.  
  60. Audio #2
  61. ID : 3
  62. Format : FLAC
  63. Format/Info : Free Lossless Audio Codec
  64. Codec ID : A_FLAC
  65. Duration : 23 min 41 s
  66. Bit rate mode : Variable
  67. Bit rate : 1 433 kb/s
  68. Channel(s) : 2 channels
  69. Channel layout : L R
  70. Sampling rate : 48.0 kHz
  71. Frame rate : 10.417 FPS (4608 SPF)
  72. Bit depth : 24 bits
  73. Compression mode : Lossless
  74. Stream size : 243 MiB (22%)
  75. Writing library : Lavf58.76.100
  76. Language : Japanese
  77. Default : No
  78. Forced : No
  79.  
  80. Text #1
  81. ID : 4
  82. Format : ASS
  83. Codec ID : S_TEXT/ASS
  84. Codec ID/Info : Advanced Sub Station Alpha
  85. Duration : 23 min 33 s
  86. Bit rate : 5 336 b/s
  87. Count of elements : 6249
  88. Compression mode : Lossless
  89. Stream size : 921 KiB (0%)
  90. Title : Signs & Songs
  91. Language : English
  92. Default : Yes
  93. Forced : No
  94.  
  95. Text #2
  96. ID : 5
  97. Format : ASS
  98. Codec ID : S_TEXT/ASS
  99. Codec ID/Info : Advanced Sub Station Alpha
  100. Duration : 23 min 38 s
  101. Bit rate : 5 435 b/s
  102. Count of elements : 6577
  103. Compression mode : Lossless
  104. Stream size : 941 KiB (0%)
  105. Title : Dialogue
  106. Language : English
  107. Default : No
  108. Forced : No
  109.  
  110. Menu
  111. 00:00:00.000 : OP
  112. 00:01:30.006 : Part A
  113. 00:11:36.987 : Part B
  114. 00:22:04.948 : ED
  115. 00:23:34.955 : PV
  116.  
  117.  
Advertisement
RAW Paste Data Copied
Advertisement