SHARE
TWEET

Untitled

mft39anton Dec 9th, 2018 67 Never
Not a member of Pastebin yet? Sign Up, it unlocks many cool features!
  1. Disc Title:     THE BEATLES - THE WHITE ALBUM
  2. Disc Size:      42 138 765 777 bytes
  3. Protection:     AACS
  4. BD-Java:        No
  5. BDInfo:         0.5.8
  6.  
  7. Notes:          
  8.  
  9. BDINFO HOME:
  10.   Cinema Squid
  11.     http://www.cinemasquid.com/blu-ray/tools/bdinfo
  12.  
  13. INCLUDES FORUMS REPORT FOR:
  14.   AVS Forum Blu-ray Audio and Video Specifications Thread
  15.     http://www.avsforum.com/avs-vb/showthread.php?t=1155731
  16.  
  17.  
  18. ********************
  19. PLAYLIST: 00002.MPLS
  20. ********************
  21.  
  22. <--- BEGIN FORUMS PASTE --->
  23. [code]
  24.                                                                                                                 Total   Video                                            
  25. Title                                                           Codec   Length  Movie Size      Disc Size       Bitrate Bitrate Main Audio Track                          Secondary Audio Track
  26. -----                                                           ------  ------- --------------  --------------  ------- ------- ------------------                        ---------------------
  27. 00002.MPLS                                                      AVC     0:47:18 13 251 336 192  42 138 765 777  37,34   15,00   LPCM 2.0 4608Kbps (96kHz/24-bit)          DTS-HD Master 5.1 7321Kbps (96kHz/24-bit)
  28. [/code]
  29.  
  30. [code]
  31.  
  32. DISC INFO:
  33.  
  34. Disc Title:     THE BEATLES - THE WHITE ALBUM
  35. Disc Size:      42 138 765 777 bytes
  36. Protection:     AACS
  37. BD-Java:        No
  38. BDInfo:         0.5.8
  39.  
  40. PLAYLIST REPORT:
  41.  
  42. Name:                   00002.MPLS
  43. Length:                 0:47:18.919 (h:m:s.ms)
  44. Size:                   13 251 336 192 bytes
  45. Total Bitrate:          37,34 Mbps
  46.  
  47. VIDEO:
  48.  
  49. Codec                   Bitrate             Description    
  50. -----                   -------             -----------    
  51. MPEG-4 AVC Video        14998 kbps          1080p / 23,976 fps / 16:9 / High Profile 4.1
  52.  
  53. AUDIO:
  54.  
  55. Codec                           Language        Bitrate         Description    
  56. -----                           --------        -------         -----------    
  57. LPCM Audio                      English         4608 kbps       2.0 / 96 kHz / 4608 kbps / 24-bit
  58. DTS-HD Master Audio             English         7321 kbps       5.1 / 96 kHz / 7321 kbps / 24-bit (DTS Core: 5.1 / 48 kHz / 1509 kbps / 24-bit)
  59. Dolby TrueHD Audio              English         6623 kbps       5.1 / 96 kHz / 6623 kbps / 16-bit (AC3 Embedded: 5.1 / 48 kHz / 640 kbps)
  60.  
  61. FILES:
  62.  
  63. Name            Time In         Length          Size            Total Bitrate  
  64. ----            -------         ------          ----            -------------  
  65. 00003.M2TS      0:00:00.000     0:00:02.669     8 239 104       24 693          
  66. 00007.M2TS      0:00:02.669     0:47:16.250     13 243 097 088  37 354          
  67.  
  68. CHAPTERS:
  69.  
  70. Number          Time In         Length          Avg Video Rate  Max 1-Sec Rate  Max 1-Sec Time  Max 5-Sec Rate  Max 5-Sec Time  Max 10Sec Rate  Max 10Sec Time  Avg Frame Size  Max Frame Size  Max Frame Time  
  71. ------          -------         ------          --------------  --------------  --------------  --------------  --------------  --------------  --------------  --------------  --------------  --------------  
  72. 1               0:00:00.000     0:02:44.664     14 976 kbps     25 013 kbps     00:01:21.289    17 919 kbps     00:02:24.477    16 588 kbps     00:00:13.805    78 060 bytes    423 361 bytes   00:02:33.278    
  73. 2               0:02:44.664     0:04:00.949     15 000 kbps     24 050 kbps     00:05:09.600    18 187 kbps     00:06:13.706    16 635 kbps     00:02:55.925    78 202 bytes    426 716 bytes   00:03:04.934    
  74. 3               0:06:45.613     0:02:47.792     15 000 kbps     23 078 kbps     00:08:05.318    18 120 kbps     00:09:09.298    16 650 kbps     00:09:05.253    78 202 bytes    444 680 bytes   00:07:05.716    
  75. 4               0:09:33.406     0:02:24.686     15 000 kbps     23 079 kbps     00:09:48.921    17 975 kbps     00:09:48.629    16 578 kbps     00:11:01.327    78 202 bytes    418 867 bytes   00:11:10.336    
  76. 5               0:11:58.092     0:03:15.403     15 000 kbps     25 197 kbps     00:14:23.112    18 026 kbps     00:13:18.672    16 611 kbps     00:13:13.709    78 202 bytes    425 317 bytes   00:12:22.283    
  77. 6               0:15:13.495     0:04:29.727     15 000 kbps     25 251 kbps     00:15:29.303    18 214 kbps     00:15:29.136    16 622 kbps     00:15:24.173    78 202 bytes    424 471 bytes   00:15:37.978    
  78. 7               0:19:43.223     0:03:06.519     15 000 kbps     22 014 kbps     00:21:05.055    18 030 kbps     00:21:03.971    16 610 kbps     00:22:07.075    78 202 bytes    423 389 bytes   00:21:13.730    
  79. 8               0:22:49.743     0:04:15.672     15 000 kbps     23 804 kbps     00:24:09.239    18 050 kbps     00:23:04.841    16 612 kbps     00:24:04.109    78 202 bytes    423 453 bytes   00:23:14.601    
  80. 9               0:27:05.415     0:02:41.161     15 000 kbps     25 195 kbps     00:29:25.805    18 268 kbps     00:27:20.930    16 660 kbps     00:27:15.967    78 202 bytes    424 455 bytes   00:28:32.127    
  81. 10              0:29:46.576     0:02:54.424     15 000 kbps     25 252 kbps     00:31:06.531    18 248 kbps     00:30:02.091    16 650 kbps     00:29:57.128    78 202 bytes    425 365 bytes   00:32:19.479    
  82. 11              0:32:41.000     0:03:01.639     15 000 kbps     23 472 kbps     00:32:56.849    18 214 kbps     00:35:03.309    16 653 kbps     00:34:58.346    78 202 bytes    425 260 bytes   00:33:05.525    
  83. 12              0:35:42.640     0:08:21.334     15 000 kbps     25 302 kbps     00:40:16.205    18 249 kbps     00:43:29.815    16 650 kbps     00:43:24.852    78 202 bytes    444 721 bytes   00:37:07.266    
  84. 13              0:44:03.974     0:03:13.943     15 000 kbps     25 163 kbps     00:45:24.138    18 197 kbps     00:45:23.971    16 630 kbps     00:44:14.735    78 202 bytes    425 502 bytes   00:46:37.085    
  85. 14              0:47:17.918     0:00:01.000     14 375 kbps     0 kbps          00:00:00.000    0 kbps          00:00:00.000    0 kbps          00:00:00.000    78 202 bytes    151 184 bytes   00:47:18.335    
  86.  
  87. STREAM DIAGNOSTICS:
  88.  
  89. File            PID             Type            Codec           Language                Seconds                 Bitrate                 Bytes           Packets        
  90. ----            ---             ----            -----           --------                --------------          --------------          -------------   -----          
  91. 00003.M2TS      4113 (0x1011)   0x1B            AVC                                     2,544                   14 853                  4 723 720       25 731          
  92. 00003.M2TS      4352 (0x1100)   0x80            LPCM            eng (English)           2,544                   4 843                   1 540 056       8 544          
  93. 00003.M2TS      4353 (0x1101)   0x86            DTS-HD MA       eng (English)           2,544                   2 117                   673 184         4 016          
  94. 00003.M2TS      4354 (0x1102)   0x83            TrueHD          eng (English)           2,544                   1 978                   628 928         4 490          
  95. 00007.M2TS      4113 (0x1011)   0x1B            AVC                                     2836,167                14 999                  5 317 619 620   28 954 254      
  96. 00007.M2TS      4352 (0x1100)   0x80            LPCM            eng (English)           2836,167                4 615                   1 635 949 000   9 076 000      
  97. 00007.M2TS      4353 (0x1101)   0x86            DTS-HD MA       eng (English)           2836,167                7 326                   2 597 277 664   14 549 006      
  98. 00007.M2TS      4354 (0x1102)   0x83            TrueHD          eng (English)           2836,167                7 269                   2 576 915 512   16 300 171      
  99.  
  100. [/code]
  101. <---- END FORUMS PASTE ---->
  102.  
  103. QUICK SUMMARY:
  104.  
  105. Disc Title: THE BEATLES - THE WHITE ALBUM
  106. Disc Size: 42 138 765 777 bytes
  107. Protection: AACS
  108. BD-Java: No
  109. Playlist: 00002.MPLS
  110. Size: 13 251 336 192 bytes
  111. Length: 0:47:18.919
  112. Total Bitrate: 37,34 Mbps
  113. Video: MPEG-4 AVC Video / 14998 kbps / 1080p / 23,976 fps / 16:9 / High Profile 4.1
  114. Audio: English / LPCM Audio / 2.0 / 96 kHz / 4608 kbps / 24-bit
  115. Audio: English / DTS-HD Master Audio / 5.1 / 96 kHz / 7321 kbps / 24-bit (DTS Core: 5.1 / 48 kHz / 1509 kbps / 24-bit)
  116. Audio: English / Dolby TrueHD Audio / 5.1 / 96 kHz / 6623 kbps / 16-bit (AC3 Embedded: 5.1 / 48 kHz / 640 kbps)
  117.  
  118.  
  119. ********************
  120. PLAYLIST: 00004.MPLS
  121. ********************
  122.  
  123. <--- BEGIN FORUMS PASTE --->
  124. [code]
  125.                                                                                                                 Total   Video                                            
  126. Title                                                           Codec   Length  Movie Size      Disc Size       Bitrate Bitrate Main Audio Track                          Secondary Audio Track
  127. -----                                                           ------  ------- --------------  --------------  ------- ------- ------------------                        ---------------------
  128. 00004.MPLS                                                      AVC     0:46:33 8 303 437 824   42 138 765 777  23,78   18,00   LPCM 2.0 4608Kbps (96kHz/24-bit)          
  129. [/code]
  130.  
  131. [code]
  132.  
  133. DISC INFO:
  134.  
  135. Disc Title:     THE BEATLES - THE WHITE ALBUM
  136. Disc Size:      42 138 765 777 bytes
  137. Protection:     AACS
  138. BD-Java:        No
  139. BDInfo:         0.5.8
  140.  
  141. PLAYLIST REPORT:
  142.  
  143. Name:                   00004.MPLS
  144. Length:                 0:46:33.790 (h:m:s.ms)
  145. Size:                   8 303 437 824 bytes
  146. Total Bitrate:          23,78 Mbps
  147.  
  148. VIDEO:
  149.  
  150. Codec                   Bitrate             Description    
  151. -----                   -------             -----------    
  152. MPEG-4 AVC Video        17998 kbps          1080p / 23,976 fps / 16:9 / High Profile 4.1
  153.  
  154. AUDIO:
  155.  
  156. Codec                           Language        Bitrate         Description    
  157. -----                           --------        -------         -----------    
  158. LPCM Audio                      English         4608 kbps       2.0 / 96 kHz / 4608 kbps / 24-bit
  159.  
  160. FILES:
  161.  
  162. Name            Time In         Length          Size            Total Bitrate  
  163. ----            -------         ------          ----            -------------  
  164. 00009.M2TS      0:00:00.000     0:00:02.669     7 587 840       22 741          
  165. 00002.M2TS      0:00:02.669     0:46:31.121     8 295 849 984   23 778          
  166.  
  167. CHAPTERS:
  168.  
  169. Number          Time In         Length          Avg Video Rate  Max 1-Sec Rate  Max 1-Sec Time  Max 5-Sec Rate  Max 5-Sec Time  Max 10Sec Rate  Max 10Sec Time  Avg Frame Size  Max Frame Size  Max Frame Time  
  170. ------          -------         ------          --------------  --------------  --------------  --------------  --------------  --------------  --------------  --------------  --------------  --------------  
  171. 1               0:00:00.000     0:02:44.122     17 972 kbps     25 795 kbps     00:00:22.772    21 371 kbps     00:02:23.518    19 851 kbps     00:00:17.642    93 672 bytes    482 569 bytes   00:01:26.127    
  172. 2               0:02:44.122     0:04:12.669     18 000 kbps     26 523 kbps     00:04:04.369    21 581 kbps     00:06:12.789    19 867 kbps     00:02:58.803    93 843 bytes    478 213 bytes   00:03:04.934    
  173. 3               0:06:56.791     0:02:46.624     18 000 kbps     25 887 kbps     00:07:12.390    21 462 kbps     00:08:17.497    19 869 kbps     00:08:16.329    93 843 bytes    485 713 bytes   00:09:27.692    
  174. 4               0:09:43.416     0:02:24.936     18 000 kbps     24 771 kbps     00:11:07.416    21 548 kbps     00:09:59.181    19 870 kbps     00:09:58.014    93 843 bytes    479 385 bytes   00:11:08.417    
  175. 5               0:12:08.352     0:03:14.694     18 000 kbps     25 591 kbps     00:14:32.705    21 574 kbps     00:12:23.993    19 878 kbps     00:12:22.867    93 843 bytes    485 719 bytes   00:14:36.584    
  176. 6               0:15:23.047     0:03:38.426     18 000 kbps     26 221 kbps     00:15:38.896    21 458 kbps     00:15:38.771    19 885 kbps     00:16:42.835    93 843 bytes    481 209 bytes   00:17:54.198    
  177. 7               0:19:01.473     0:03:05.894     18 000 kbps     25 589 kbps     00:20:23.805    21 573 kbps     00:19:17.447    19 877 kbps     00:19:16.321    93 843 bytes    485 639 bytes   00:20:27.684    
  178. 8               0:22:07.367     0:04:14.963     18 000 kbps     26 640 kbps     00:24:34.181    21 457 kbps     00:24:31.219    19 881 kbps     00:25:31.404    93 843 bytes    482 232 bytes   00:24:35.182    
  179. 9               0:26:22.330     0:02:40.326     18 000 kbps     26 222 kbps     00:27:39.324    21 635 kbps     00:26:36.845    19 874 kbps     00:26:35.677    93 843 bytes    478 927 bytes   00:28:46.516    
  180. 10              0:29:02.657     0:02:53.715     18 000 kbps     26 639 kbps     00:30:27.200    21 456 kbps     00:30:24.239    19 868 kbps     00:31:26.342    93 843 bytes    482 506 bytes   00:29:23.928    
  181. 11              0:31:56.372     0:03:00.305     18 000 kbps     25 589 kbps     00:33:18.913    21 546 kbps     00:34:22.101    19 853 kbps     00:34:20.933    93 843 bytes    485 661 bytes   00:33:22.792    
  182. 12              0:34:56.677     0:08:23.377     18 000 kbps     26 640 kbps     00:35:16.906    21 557 kbps     00:36:17.174    19 886 kbps     00:40:34.098    93 843 bytes    485 753 bytes   00:38:31.684    
  183. 13              0:43:20.055     0:03:12.734     18 000 kbps     26 533 kbps     00:44:40.010    21 528 kbps     00:45:44.158    19 858 kbps     00:45:42.990    93 843 bytes    472 805 bytes   00:45:49.121    
  184. 14              0:46:32.790     0:00:01.000     17 250 kbps     0 kbps          00:00:00.000    0 kbps          00:00:00.000    0 kbps          00:00:00.000    93 843 bytes    164 433 bytes   00:46:33.248    
  185.  
  186. STREAM DIAGNOSTICS:
  187.  
  188. File            PID             Type            Codec           Language                Seconds                 Bitrate                 Bytes           Packets        
  189. ----            ---             ----            -----           --------                --------------          --------------          -------------   -----          
  190. 00009.M2TS      4113 (0x1011)   0x1B            AVC                                     2,544                   17 824                  5 668 485       30 866          
  191. 00009.M2TS      4352 (0x1100)   0x80            LPCM            eng (English)           2,544                   4 843                   1 540 056       8 544          
  192. 00002.M2TS      4113 (0x1011)   0x1B            AVC                                     2790,955                18 000                  6 279 641 620   34 184 061      
  193. 00002.M2TS      4352 (0x1100)   0x80            LPCM            eng (English)           2790,955                4 614                   1 609 632 500   8 930 000      
  194.  
  195. [/code]
  196. <---- END FORUMS PASTE ---->
  197.  
  198. QUICK SUMMARY:
  199.  
  200. Disc Title: THE BEATLES - THE WHITE ALBUM
  201. Disc Size: 42 138 765 777 bytes
  202. Protection: AACS
  203. BD-Java: No
  204. Playlist: 00004.MPLS
  205. Size: 8 303 437 824 bytes
  206. Length: 0:46:33.790
  207. Total Bitrate: 23,78 Mbps
  208. Video: MPEG-4 AVC Video / 17998 kbps / 1080p / 23,976 fps / 16:9 / High Profile 4.1
  209. Audio: English / LPCM Audio / 2.0 / 96 kHz / 4608 kbps / 24-bit
  210.  
  211.  
  212. ********************
  213. PLAYLIST: 00001.MPLS
  214. ********************
  215.  
  216. <--- BEGIN FORUMS PASTE --->
  217. [code]
  218.                                                                                                                 Total   Video                                            
  219. Title                                                           Codec   Length  Movie Size      Disc Size       Bitrate Bitrate Main Audio Track                          Secondary Audio Track
  220. -----                                                           ------  ------- --------------  --------------  ------- ------- ------------------                        ---------------------
  221. 00001.MPLS                                                      AVC     0:46:23 13 156 583 424  42 138 765 777  37,81   15,00   LPCM 2.0 4608Kbps (96kHz/24-bit)          DTS-HD Master 5.1 7512Kbps (96kHz/24-bit)
  222. [/code]
  223.  
  224. [code]
  225.  
  226. DISC INFO:
  227.  
  228. Disc Title:     THE BEATLES - THE WHITE ALBUM
  229. Disc Size:      42 138 765 777 bytes
  230. Protection:     AACS
  231. BD-Java:        No
  232. BDInfo:         0.5.8
  233.  
  234. PLAYLIST REPORT:
  235.  
  236. Name:                   00001.MPLS
  237. Length:                 0:46:23.530 (h:m:s.ms)
  238. Size:                   13 156 583 424 bytes
  239. Total Bitrate:          37,81 Mbps
  240.  
  241. VIDEO:
  242.  
  243. Codec                   Bitrate             Description    
  244. -----                   -------             -----------    
  245. MPEG-4 AVC Video        14999 kbps          1080p / 23,976 fps / 16:9 / High Profile 4.1
  246.  
  247. AUDIO:
  248.  
  249. Codec                           Language        Bitrate         Description    
  250. -----                           --------        -------         -----------    
  251. LPCM Audio                      English         4608 kbps       2.0 / 96 kHz / 4608 kbps / 24-bit
  252. DTS-HD Master Audio             English         7512 kbps       5.1 / 96 kHz / 7512 kbps / 24-bit (DTS Core: 5.1 / 48 kHz / 1509 kbps / 24-bit)
  253. Dolby TrueHD Audio              English         6923 kbps       5.1 / 96 kHz / 6923 kbps / 24-bit (AC3 Embedded: 5.1 / 48 kHz / 640 kbps)
  254.  
  255. FILES:
  256.  
  257. Name            Time In         Length          Size            Total Bitrate  
  258. ----            -------         ------          ----            -------------  
  259. 00006.M2TS      0:00:00.000     0:46:23.530     13 156 583 424  37 813          
  260.  
  261. CHAPTERS:
  262.  
  263. Number          Time In         Length          Avg Video Rate  Max 1-Sec Rate  Max 1-Sec Time  Max 5-Sec Rate  Max 5-Sec Time  Max 10Sec Rate  Max 10Sec Time  Avg Frame Size  Max Frame Size  Max Frame Time  
  264. ------          -------         ------          --------------  --------------  --------------  --------------  --------------  --------------  --------------  --------------  --------------  --------------  
  265. 1               0:00:00.000     0:02:41.828     14 990 kbps     23 694 kbps     00:00:24.899    18 370 kbps     00:00:22.856    16 723 kbps     00:00:22.647    78 130 bytes    442 514 bytes   00:01:48.399    
  266. 2               0:02:41.828     0:03:55.818     15 000 kbps     24 158 kbps     00:03:01.264    18 168 kbps     00:04:20.760    16 676 kbps     00:05:44.969    78 202 bytes    446 664 bytes   00:04:28.601    
  267. 3               0:06:37.647     0:02:18.263     15 000 kbps     23 759 kbps     00:07:59.604    18 238 kbps     00:06:51.369    16 648 kbps     00:06:52.120    78 202 bytes    444 446 bytes   00:08:08.279    
  268. 4               0:08:55.910     0:03:09.022     15 000 kbps     23 544 kbps     00:09:12.510    18 230 kbps     00:09:11.384    16 717 kbps     00:09:06.420    78 202 bytes    446 703 bytes   00:11:21.097    
  269. 5               0:12:04.932     0:00:53.052     15 014 kbps     23 140 kbps     00:12:20.531    18 203 kbps     00:12:20.364    16 629 kbps     00:12:15.401    78 276 bytes    440 692 bytes   00:12:29.206    
  270. 6               0:12:57.985     0:03:14.194     14 996 kbps     23 652 kbps     00:14:17.565    18 111 kbps     00:14:15.521    16 656 kbps     00:13:12.958    78 182 bytes    446 719 bytes   00:13:19.089    
  271. 7               0:16:12.179     0:04:45.201     15 000 kbps     24 390 kbps     00:16:28.028    18 227 kbps     00:17:30.215    16 673 kbps     00:19:29.960    78 202 bytes    444 086 bytes   00:18:41.411    
  272. 8               0:20:57.381     0:02:44.539     15 000 kbps     25 474 kbps     00:23:19.564    18 167 kbps     00:23:19.398    16 625 kbps     00:23:14.434    78 202 bytes    444 424 bytes   00:22:24.926    
  273. 9               0:23:41.920     0:02:28.565     15 000 kbps     25 475 kbps     00:23:56.977    18 181 kbps     00:23:56.810    16 632 kbps     00:23:51.847    78 202 bytes    444 081 bytes   00:24:05.652    
  274. 10              0:26:10.485     0:02:03.289     15 000 kbps     22 986 kbps     00:27:31.858    18 036 kbps     00:27:29.814    16 631 kbps     00:27:29.606    78 202 bytes    442 444 bytes   00:26:36.261    
  275. 11              0:28:13.775     0:02:18.346     15 000 kbps     23 289 kbps     00:29:33.229    18 157 kbps     00:28:28.289    16 653 kbps     00:29:28.558    78 202 bytes    442 067 bytes   00:29:42.363    
  276. 12              0:30:32.121     0:02:04.374     15 000 kbps     24 369 kbps     00:32:04.297    18 137 kbps     00:32:04.130    16 616 kbps     00:32:03.004    78 202 bytes    443 966 bytes   00:32:12.972    
  277. 13              0:32:36.496     0:03:32.921     15 000 kbps     23 652 kbps     00:32:52.261    18 180 kbps     00:33:59.245    16 650 kbps     00:33:54.282    78 202 bytes    444 474 bytes   00:33:00.937    
  278. 14              0:36:09.417     0:03:50.605     15 000 kbps     24 459 kbps     00:37:29.497    18 212 kbps     00:36:25.057    16 644 kbps     00:36:20.094    78 202 bytes    443 635 bytes   00:37:38.172    
  279. 15              0:40:00.022     0:01:41.434     15 000 kbps     23 013 kbps     00:41:20.227    18 160 kbps     00:40:15.329    16 623 kbps     00:41:19.393    78 202 bytes    438 740 bytes   00:40:24.130    
  280. 16              0:41:41.457     0:01:46.064     15 000 kbps     23 586 kbps     00:41:57.139    18 233 kbps     00:43:01.245    16 642 kbps     00:42:56.282    78 202 bytes    441 383 bytes   00:42:05.814    
  281. 17              0:43:27.521     0:02:54.841     15 000 kbps     23 586 kbps     00:45:52.166    18 233 kbps     00:45:51.999    16 642 kbps     00:45:47.035    78 202 bytes    443 127 bytes   00:44:56.568    
  282. 18              0:46:22.362     0:00:01.167     14 464 kbps     15 000 kbps     00:46:22.488    0 kbps          00:00:00.000    0 kbps          00:00:00.000    78 202 bytes    166 044 bytes   00:46:22.905    
  283.  
  284. STREAM DIAGNOSTICS:
  285.  
  286. File            PID             Type            Codec           Language                Seconds                 Bitrate                 Bytes           Packets        
  287. ----            ---             ----            -----           --------                --------------          --------------          -------------   -----          
  288. 00006.M2TS      4113 (0x1011)   0x1B            AVC                                     2783,406                15 000                  5 218 772 135   28 415 867      
  289. 00006.M2TS      4352 (0x1100)   0x80            LPCM            eng (English)           2783,406                4 615                   1 605 540 104   8 907 296      
  290. 00006.M2TS      4353 (0x1101)   0x86            DTS-HD MA       eng (English)           2783,406                7 512                   2 613 715 452   14 637 275      
  291. 00006.M2TS      4354 (0x1102)   0x83            TrueHD          eng (English)           2783,406                7 564                   2 631 597 820   16 470 162      
  292.  
  293. [/code]
  294. <---- END FORUMS PASTE ---->
  295.  
  296. QUICK SUMMARY:
  297.  
  298. Disc Title: THE BEATLES - THE WHITE ALBUM
  299. Disc Size: 42 138 765 777 bytes
  300. Protection: AACS
  301. BD-Java: No
  302. Playlist: 00001.MPLS
  303. Size: 13 156 583 424 bytes
  304. Length: 0:46:23.530
  305. Total Bitrate: 37,81 Mbps
  306. Video: MPEG-4 AVC Video / 14999 kbps / 1080p / 23,976 fps / 16:9 / High Profile 4.1
  307. Audio: English / LPCM Audio / 2.0 / 96 kHz / 4608 kbps / 24-bit
  308. Audio: English / DTS-HD Master Audio / 5.1 / 96 kHz / 7512 kbps / 24-bit (DTS Core: 5.1 / 48 kHz / 1509 kbps / 24-bit)
  309. Audio: English / Dolby TrueHD Audio / 5.1 / 96 kHz / 6923 kbps / 24-bit (AC3 Embedded: 5.1 / 48 kHz / 640 kbps)
  310.  
  311.  
  312. ********************
  313. PLAYLIST: 00003.MPLS
  314. ********************
  315.  
  316. <--- BEGIN FORUMS PASTE --->
  317. [code]
  318.                                                                                                                 Total   Video                                            
  319. Title                                                           Codec   Length  Movie Size      Disc Size       Bitrate Bitrate Main Audio Track                          Secondary Audio Track
  320. -----                                                           ------  ------- --------------  --------------  ------- ------- ------------------                        ---------------------
  321. 00003.MPLS                                                      AVC     0:46:14 7 161 606 144   42 138 765 777  20,65   15,00   LPCM 2.0 4608Kbps (96kHz/24-bit)          
  322. [/code]
  323.  
  324. [code]
  325.  
  326. DISC INFO:
  327.  
  328. Disc Title:     THE BEATLES - THE WHITE ALBUM
  329. Disc Size:      42 138 765 777 bytes
  330. Protection:     AACS
  331. BD-Java:        No
  332. BDInfo:         0.5.8
  333.  
  334. PLAYLIST REPORT:
  335.  
  336. Name:                   00003.MPLS
  337. Length:                 0:46:14.897 (h:m:s.ms)
  338. Size:                   7 161 606 144 bytes
  339. Total Bitrate:          20,65 Mbps
  340.  
  341. VIDEO:
  342.  
  343. Codec                   Bitrate             Description    
  344. -----                   -------             -----------    
  345. MPEG-4 AVC Video        14999 kbps          1080p / 23,976 fps / 16:9 / High Profile 4.1
  346.  
  347. AUDIO:
  348.  
  349. Codec                           Language        Bitrate         Description    
  350. -----                           --------        -------         -----------    
  351. LPCM Audio                      English         4608 kbps       2.0 / 96 kHz / 4608 kbps / 24-bit
  352.  
  353. FILES:
  354.  
  355. Name            Time In         Length          Size            Total Bitrate  
  356. ----            -------         ------          ----            -------------  
  357. 00000.M2TS      0:00:00.000     0:46:14.897     7 161 606 144   20 647          
  358.  
  359. CHAPTERS:
  360.  
  361. Number          Time In         Length          Avg Video Rate  Max 1-Sec Rate  Max 1-Sec Time  Max 5-Sec Rate  Max 5-Sec Time  Max 10Sec Rate  Max 10Sec Time  Avg Frame Size  Max Frame Size  Max Frame Time  
  362. ------          -------         ------          --------------  --------------  --------------  --------------  --------------  --------------  --------------  --------------  --------------  --------------  
  363. 1               0:00:00.000     0:02:43.163     14 990 kbps     25 229 kbps     00:01:18.620    18 112 kbps     00:01:18.453    16 588 kbps     00:00:15.932    78 130 bytes    444 199 bytes   00:02:32.527    
  364. 2               0:02:43.163     0:03:53.107     15 000 kbps     25 566 kbps     00:06:11.204    18 086 kbps     00:06:11.037    16 596 kbps     00:02:54.215    78 202 bytes    443 977 bytes   00:06:19.879    
  365. 3               0:06:36.270     0:02:17.262     15 000 kbps     25 566 kbps     00:07:58.644    18 106 kbps     00:07:58.477    16 582 kbps     00:06:52.120    78 202 bytes    443 989 bytes   00:08:07.320    
  366. 4               0:08:53.532     0:03:08.354     15 000 kbps     24 907 kbps     00:09:10.591    18 084 kbps     00:09:10.424    16 606 kbps     00:09:09.298    78 202 bytes    444 481 bytes   00:10:20.661    
  367. 5               0:12:01.887     0:00:53.970     15 000 kbps     25 576 kbps     00:12:18.612    17 991 kbps     00:12:18.487    16 574 kbps     00:12:14.442    78 202 bytes    443 658 bytes   00:12:27.288    
  368. 6               0:12:55.858     0:03:13.902     15 000 kbps     24 318 kbps     00:14:15.646    18 094 kbps     00:15:19.793    16 584 kbps     00:14:15.312    78 202 bytes    441 341 bytes   00:13:20.049    
  369. 7               0:16:09.760     0:04:47.203     15 000 kbps     23 504 kbps     00:16:26.110    18 187 kbps     00:17:31.175    16 607 kbps     00:17:26.211    78 202 bytes    445 089 bytes   00:19:48.562    
  370. 8               0:20:56.964     0:02:45.123     15 000 kbps     25 481 kbps     00:22:17.210    18 086 kbps     00:22:17.044    16 605 kbps     00:21:11.645    78 202 bytes    444 424 bytes   00:23:30.158    
  371. 9               0:23:42.087     0:02:28.148     15 000 kbps     25 840 kbps     00:23:57.936    18 126 kbps     00:23:57.769    16 611 kbps     00:25:10.508    78 202 bytes    444 005 bytes   00:24:06.611    
  372. 10              0:26:10.235     0:02:02.956     15 001 kbps     23 668 kbps     00:27:30.899    18 120 kbps     00:26:25.542    16 598 kbps     00:27:29.606    78 208 bytes    443 958 bytes   00:27:39.574    
  373. 11              0:28:13.191     0:02:18.555     14 999 kbps     24 466 kbps     00:29:33.688    17 981 kbps     00:28:28.331    16 610 kbps     00:28:28.123    78 197 bytes    440 920 bytes   00:28:38.091    
  374. 12              0:30:31.746     0:02:02.997     15 000 kbps     25 481 kbps     00:30:47.554    18 143 kbps     00:30:47.387    16 599 kbps     00:30:42.423    78 202 bytes    443 159 bytes   00:30:56.229    
  375. 13              0:32:34.744     0:03:32.503     15 000 kbps     24 907 kbps     00:34:59.847    18 097 kbps     00:34:59.680    16 608 kbps     00:33:54.282    78 202 bytes    446 701 bytes   00:34:00.413    
  376. 14              0:36:07.248     0:03:44.766     15 000 kbps     24 906 kbps     00:36:23.306    18 137 kbps     00:36:23.139    16 628 kbps     00:36:18.176    78 202 bytes    443 213 bytes   00:36:31.981    
  377. 15              0:39:52.014     0:01:41.810     15 000 kbps     22 977 kbps     00:40:07.780    18 132 kbps     00:41:11.927    16 594 kbps     00:40:06.487    78 202 bytes    444 490 bytes   00:40:16.455    
  378. 16              0:41:33.824     0:01:45.021     15 000 kbps     24 465 kbps     00:42:53.737    18 017 kbps     00:41:49.340    16 587 kbps     00:41:48.172    78 202 bytes    441 939 bytes   00:41:58.140    
  379. 17              0:43:18.846     0:02:55.049     15 000 kbps     25 482 kbps     00:44:39.259    18 143 kbps     00:44:39.093    16 599 kbps     00:44:34.129    78 202 bytes    443 974 bytes   00:43:39.825    
  380. 18              0:46:13.896     0:00:01.000     14 375 kbps     0 kbps          00:00:00.000    0 kbps          00:00:00.000    0 kbps          00:00:00.000    78 202 bytes    166 044 bytes   00:46:14.271    
  381.  
  382. STREAM DIAGNOSTICS:
  383.  
  384. File            PID             Type            Codec           Language                Seconds                 Bitrate                 Bytes           Packets        
  385. ----            ---             ----            -----           --------                --------------          --------------          -------------   -----          
  386. 00000.M2TS      4113 (0x1011)   0x1B            AVC                                     2774,772                15 000                  5 202 584 296   28 327 400      
  387. 00000.M2TS      4352 (0x1100)   0x80            LPCM            eng (English)           2774,772                4 615                   1 600 559 436   8 879 664      
  388.  
  389. [/code]
  390. <---- END FORUMS PASTE ---->
  391.  
  392. QUICK SUMMARY:
  393.  
  394. Disc Title: THE BEATLES - THE WHITE ALBUM
  395. Disc Size: 42 138 765 777 bytes
  396. Protection: AACS
  397. BD-Java: No
  398. Playlist: 00003.MPLS
  399. Size: 7 161 606 144 bytes
  400. Length: 0:46:14.897
  401. Total Bitrate: 20,65 Mbps
  402. Video: MPEG-4 AVC Video / 14999 kbps / 1080p / 23,976 fps / 16:9 / High Profile 4.1
  403. Audio: English / LPCM Audio / 2.0 / 96 kHz / 4608 kbps / 24-bit
RAW Paste Data
We use cookies for various purposes including analytics. By continuing to use Pastebin, you agree to our use of cookies as described in the Cookies Policy. OK, I Understand
 
Top