Advertisement
Guest User

Untitled

a guest
Sep 11th, 2018
15
0
Never
Not a member of Pastebin yet? Sign Up, it unlocks many cool features!
text 6.21 KB | None | 0 0
  1. General
  2. Unique ID : 230601262883638682190390200536411469060 (0xAD7C300FBC6602999692FAAE5470F504)
  3. Complete name : \\192.168.1.112\Films\Anime\Dungeon ni Deai wo Motomeru no wa Machigatteiru Darou ka\Dungeon ni Deai wo Motomeru no wa Machigatteiru Darou ka\Dungeon ni Deai wo Motomeru no wa Machigatteiru Darou ka - 00x01 (OVA) [1080p] [10 Bit] [x265].mkv
  4. Format : Matroska
  5. Format version : Version 4 / Version 2
  6. File size : 246 MiB
  7. Duration : 24 min 36 s
  8. Overall bit rate : 1 398 kb/s
  9. Movie name : [Kametsu] DanMachi OVA [BD 1080p Hi10 FLAC]
  10. Encoded date : UTC 2017-10-10 12:02:57
  11. Writing application : mkvmerge v15.0.0 ('Duel with the Devil') 64-bit
  12. Writing library : libebml v1.3.5 + libmatroska v1.4.5
  13. Attachments : BuxtonSketch.ttf / KozMinPro-Medium_1.otf / KozukaMinchoProStrp-H_0.otf / Kurale-Regular_1.ttf / Lato-Black_0.ttf / Lato-BlackItalic.ttf / LibreBaskerville-Bold_0.ttf
  14. Writing frontend : StaxRip v1.7.0.0
  15.  
  16. Video
  17. ID : 1
  18. Format : HEVC
  19. Format/Info : High Efficiency Video Coding
  20. Format profile : Main 10@L4@Main
  21. Codec ID : V_MPEGH/ISO/HEVC
  22. Duration : 24 min 36 s
  23. Bit rate : 1 238 kb/s
  24. Width : 1 920 pixels
  25. Height : 1 080 pixels
  26. Display aspect ratio : 16:9
  27. Frame rate mode : Constant
  28. Frame rate : 23.976 (24000/1001) FPS
  29. Original frame rate : 23.976 (23976/1000) FPS
  30. Color space : YUV
  31. Chroma subsampling : 4:2:0
  32. Bit depth : 10 bits
  33. Bits/(Pixel*Frame) : 0.025
  34. Stream size : 218 MiB (89%)
  35. Writing library : x265 2.5+14-2718cb5dd67f:[Windows][GCC 7.1.0][64 bit] 10bit
  36. Encoding settings : cpuid=1173503 / frame-threads=3 / numa-pools=8 / wpp / no-pmode / no-pme / no-psnr / no-ssim / log-level=2 / input-csp=1 / input-res=1920x1080 / interlace=0 / total-frames=35392 / level-idc=0 / high-tier=1 / uhd-bd=0 / ref=3 / no-allow-non-conformance / no-repeat-headers / annexb / no-aud / no-hrd / info / hash=0 / no-temporal-layers / open-gop / min-keyint=23 / keyint=250 / bframes=4 / b-adapt=2 / b-pyramid / bframe-bias=0 / rc-lookahead=20 / lookahead-slices=6 / scenecut=40 / no-intra-refresh / ctu=64 / min-cu-size=8 / no-rect / no-amp / max-tu-size=32 / tu-inter-depth=1 / tu-intra-depth=1 / limit-tu=0 / rdoq-level=0 / dynamic-rd=0.00 / no-ssim-rd / signhide / no-tskip / nr-intra=0 / nr-inter=0 / no-constrained-intra / strong-intra-smoothing / max-merge=2 / limit-refs=3 / no-limit-modes / me=1 / subme=2 / merange=57 / temporal-mvp / weightp / no-weightb / no-analyze-src-pics / deblock=0:0 / sao / no-sao-non-deblock / rd=3 / no-early-skip / rskip / no-fast-intra / no-tskip-fast / no-cu-lossless / no-b-intra / no-splitrd-skip / rdpenalty=0 / psy-rd=2.00 / psy-rdoq=0.00 / no-rd-refine / analysis-reuse-mode=0 / no-lossless / cbqpoffs=0 / crqpoffs=0 / rc=crf / crf=22.0 / qcomp=0.60 / qpstep=4 / stats-write=0 / stats-read=0 / ipratio=1.40 / pbratio=1.30 / aq-mode=1 / aq-strength=1.00 / cutree / zone-count=0 / no-strict-cbr / qg-size=32 / no-rc-grain / qpmax=69 / qpmin=0 / no-const-vbv / sar=0 / overscan=0 / videoformat=5 / range=0 / colorprim=2 / transfer=2 / colormatrix=2 / chromaloc=0 / display-window=0 / max-cll=0,0 / min-luma=0 / max-luma=1023 / log2-max-poc-lsb=8 / vui-timing-info / vui-hrd-info / slices=1 / opt-qp-pps / opt-ref-list-length-pps / no-multi-pass-opt-rps / scenecut-bias=0.05 / no-opt-cu-delta-qp / no-aq-motion / no-hdr / no-hdr-opt / no-dhdr10-opt / analysis-reuse-level=5 / scale-factor=0 / refine-intra=0 / refine-inter=0 / refine-mv=0 / no-limit-sao / ctu-info=0
  37. Default : Yes
  38. Forced : No
  39.  
  40. Audio
  41. ID : 2
  42. Format : AAC
  43. Format/Info : Advanced Audio Codec
  44. Format profile : LC
  45. Codec ID : A_AAC-2
  46. Duration : 24 min 34 s
  47. Bit rate : 122 kb/s
  48. Channel(s) : 2 channels
  49. Channel positions : Front: L R
  50. Sampling rate : 48.0 kHz
  51. Frame rate : 46.875 FPS (1024 SPF)
  52. Compression mode : Lossy
  53. Delay relative to video : 9 ms
  54. Stream size : 21.4 MiB (9%)
  55. Language : Japanese
  56. Default : Yes
  57. Forced : No
  58.  
  59. Text
  60. ID : 3
  61. Format : ASS
  62. Codec ID : S_TEXT/ASS
  63. Codec ID/Info : Advanced Sub Station Alpha
  64. Duration : 24 min 20 s
  65. Bit rate : 5 559 b/s
  66. Count of elements : 5518
  67. Compression mode : Lossless
  68. Stream size : 991 KiB (0%)
  69. Title : Subtitles
  70. Language : English
  71. Default : Yes
  72. Forced : No
  73.  
  74. Menu
  75. 00:00:00.000 : en:Prologue
  76. 00:01:04.982 : en:Opening
  77. 00:02:35.030 : en:Part A
  78. 00:10:14.030 : en:Part B
  79. 00:23:03.966 : en:Ending
Advertisement
Add Comment
Please, Sign In to add comment
Advertisement