Guest User

Untitled

a guest
May 3rd, 2021
24
Never
Not a member of Pastebin yet? Sign Up, it unlocks many cool features!
  1. General
  2. Unique ID : 318283022089816991566274991176926134935 (0xEF73148EC18BA85FA0C20FDEF5848297)
  3. Complete name : F:\Video\Blithe.Spirit.2020.BDREMUX.1080p.seleZen.mkv
  4. Format : Matroska
  5. Format version : Version 4
  6. File size : 26.4 GiB
  7. Duration : 1 h 39 min
  8. Overall bit rate mode : Variable
  9. Overall bit rate : 37.9 Mb/s
  10. Movie name : Blithe Spirit 2020 from seleZen
  11. Encoded date : UTC 2021-05-03 14:14:26
  12. Writing application : mkvmerge v55.0.0 ('Waiting For Space') 64-bit
  13. Writing library : libebml v1.4.2 + libmatroska v1.6.4
  14.  
  15. Video
  16. ID : 1
  17. Format : AVC
  18. Format/Info : Advanced Video Codec
  19. Format profile : High@L4.1
  20. Format settings : CABAC / 4 Ref Frames
  21. Format settings, CABAC : Yes
  22. Format settings, Reference : 4 frames
  23. Codec ID : V_MPEG4/ISO/AVC
  24. Duration : 1 h 39 min
  25. Bit rate mode : Variable
  26. Bit rate : 34.0 Mb/s
  27. Maximum bit rate : 38.0 Mb/s
  28. Width : 1 920 pixels
  29. Height : 1 080 pixels
  30. Display aspect ratio : 16:9
  31. Frame rate mode : Constant
  32. Frame rate : 23.976 (24000/1001) FPS
  33. Color space : YUV
  34. Chroma subsampling : 4:2:0
  35. Bit depth : 8 bits
  36. Scan type : Progressive
  37. Bits/(Pixel*Frame) : 0.685
  38. Stream size : 23.7 GiB (90%)
  39. Language : English
  40. Default : Yes
  41. Forced : No
  42.  
  43. Audio #1
  44. ID : 2
  45. Format : AC-3
  46. Format/Info : Audio Coding 3
  47. Commercial name : Dolby Digital
  48. Codec ID : A_AC3
  49. Duration : 1 h 39 min
  50. Bit rate mode : Constant
  51. Bit rate : 384 kb/s
  52. Channel(s) : 6 channels
  53. Channel layout : L R C LFE Ls Rs
  54. Sampling rate : 48.0 kHz
  55. Frame rate : 31.250 FPS (1536 SPF)
  56. Compression mode : Lossy
  57. Stream size : 274 MiB (1%)
  58. Title : iTunes
  59. Language : Russian
  60. Service kind : Complete Main
  61. Default : Yes
  62. Forced : Yes
  63.  
  64. Audio #2
  65. ID : 3
  66. Format : DTS XLL
  67. Format/Info : Digital Theater Systems
  68. Commercial name : DTS-HD Master Audio
  69. Codec ID : A_DTS
  70. Duration : 1 h 39 min
  71. Bit rate mode : Variable
  72. Bit rate : 3 470 kb/s
  73. Channel(s) : 6 channels
  74. Channel layout : C L R Ls Rs LFE
  75. Sampling rate : 48.0 kHz
  76. Frame rate : 93.750 FPS (512 SPF)
  77. Bit depth : 24 bits
  78. Compression mode : Lossless
  79. Stream size : 2.42 GiB (9%)
  80. Title : Original
  81. Language : English
  82. Default : No
  83. Forced : No
  84.  
  85. Text #1
  86. ID : 4
  87. Format : UTF-8
  88. Codec ID : S_TEXT/UTF8
  89. Codec ID/Info : UTF-8 Plain Text
  90. Duration : 1 h 34 min
  91. Bit rate : 120 b/s
  92. Count of elements : 1552
  93. Stream size : 83.1 KiB (0%)
  94. Title : Full
  95. Language : Russian
  96. Default : No
  97. Forced : No
  98.  
  99. Text #2
  100. ID : 5
  101. Format : UTF-8
  102. Codec ID : S_TEXT/UTF8
  103. Codec ID/Info : UTF-8 Plain Text
  104. Duration : 1 h 38 min
  105. Bit rate : 72 b/s
  106. Count of elements : 1715
  107. Stream size : 52.4 KiB (0%)
  108. Title : Full
  109. Language : English
  110. Default : No
  111. Forced : No
  112.  
  113. Menu
  114. 00:00:00.000 : en:Chapter 01
  115. 00:04:11.292 : en:Chapter 02
  116. 00:13:18.088 : en:Chapter 03
  117. 00:22:10.996 : en:Chapter 04
  118. 00:29:39.110 : en:Chapter 05
  119. 00:35:43.432 : en:Chapter 06
  120. 00:44:14.443 : en:Chapter 07
  121. 00:53:21.781 : en:Chapter 08
  122. 01:04:13.266 : en:Chapter 09
  123. 01:11:43.007 : en:Chapter 10
  124. 01:20:45.006 : en:Chapter 11
  125. 01:30:35.888 : en:Chapter 12
  126.  
  127.  
RAW Paste Data