iMN0

blindspotting.2018.hdr.2160p.web.h265-naisu.mkv

Jun 30th, 2021
93
Never
Not a member of Pastebin yet? Sign Up, it unlocks many cool features!
  1. General
  2. Unique ID : 160701323950398630509389325401085685367 (0x78E5F2FE1B8D46BFA5046FEF6753AE77)
  3. Complete name : blindspotting.2018.hdr.2160p.web.h265-naisu.mkv
  4. Format : Matroska
  5. Format version : Version 4
  6. File size : 16.8 GiB
  7. Duration : 1 h 35 min
  8. Overall bit rate : 25.2 Mb/s
  9. Writing application : mkvmerge v49.0.0 ('Sick Of Losing Soulmates') 64-bit
  10. Writing library : libebml v1.4.0 + libmatroska v1.6.1
  11.  
  12. Video
  13. ID : 1
  14. Format : HEVC
  15. Format/Info : High Efficiency Video Coding
  16. Format profile : Main 10@L5@High
  17. HDR format : SMPTE ST 2086, HDR10 compatible
  18. Codec ID : V_MPEGH/ISO/HEVC
  19. Duration : 1 h 35 min
  20. Bit rate : 24.0 Mb/s
  21. Width : 3 828 pixels
  22. Height : 2 052 pixels
  23. Display aspect ratio : 1.85:1
  24. Frame rate mode : Constant
  25. Frame rate : 23.976 (24000/1001) FPS
  26. Color space : YUV
  27. Chroma subsampling : 4:2:0 (Type 2)
  28. Bit depth : 10 bits
  29. Bits/(Pixel*Frame) : 0.127
  30. Stream size : 16.0 GiB (95%)
  31. Language : English
  32. Default : Yes
  33. Forced : No
  34. Color range : Limited
  35. Color primaries : BT.2020
  36. Transfer characteristics : PQ
  37. Matrix coefficients : BT.2020 non-constant
  38. Mastering display color primaries : BT.2020
  39. Mastering display luminance : min: 0.0050 cd/m2, max: 1000 cd/m2
  40. Maximum Content Light Level : 1056 cd/m2
  41. Maximum Frame-Average Light Level : 285 cd/m2
  42.  
  43. Audio
  44. ID : 2
  45. Format : E-AC-3 JOC
  46. Format/Info : Enhanced AC-3 with Joint Object Coding
  47. Commercial name : Dolby Digital Plus with Dolby Atmos
  48. Codec ID : A_EAC3
  49. Duration : 1 h 35 min
  50. Bit rate mode : Constant
  51. Bit rate : 768 kb/s
  52. Channel(s) : 6 channels
  53. Channel layout : L R C LFE Ls Rs
  54. Sampling rate : 48.0 kHz
  55. Frame rate : 31.250 FPS (1536 SPF)
  56. Compression mode : Lossy
  57. Stream size : 524 MiB (3%)
  58. Language : English
  59. Service kind : Complete Main
  60. Default : Yes
  61. Forced : No
  62. Complexity index : 16
  63. Number of dynamic objects : 15
  64. Bed channel count : 1 channel
  65. Bed channel configuration : LFE
  66.  
  67. Text #1
  68. ID : 3
  69. Format : UTF-8
  70. Codec ID : S_TEXT/UTF8
  71. Codec ID/Info : UTF-8 Plain Text
  72. Title : Chinese Simplified
  73. Language : Chinese
  74. Default : No
  75. Forced : No
  76.  
  77. Text #2
  78. ID : 4
  79. Format : UTF-8
  80. Codec ID : S_TEXT/UTF8
  81. Codec ID/Info : UTF-8 Plain Text
  82. Title : Chinese Traditional
  83. Language : Chinese
  84. Default : No
  85. Forced : No
  86.  
  87. Text #3
  88. ID : 5
  89. Format : UTF-8
  90. Codec ID : S_TEXT/UTF8
  91. Codec ID/Info : UTF-8 Plain Text
  92. Title : Dutch
  93. Language : Dutch
  94. Default : No
  95. Forced : No
  96.  
  97. Text #4
  98. ID : 6
  99. Format : UTF-8
  100. Codec ID : S_TEXT/UTF8
  101. Codec ID/Info : UTF-8 Plain Text
  102. Title : European Spanish
  103. Language : Spanish
  104. Default : No
  105. Forced : No
  106.  
  107. Text #5
  108. ID : 7
  109. Format : UTF-8
  110. Codec ID : S_TEXT/UTF8
  111. Codec ID/Info : UTF-8 Plain Text
  112. Title : French
  113. Language : French
  114. Default : No
  115. Forced : No
  116.  
  117. Text #6
  118. ID : 8
  119. Format : UTF-8
  120. Codec ID : S_TEXT/UTF8
  121. Codec ID/Info : UTF-8 Plain Text
  122. Title : German
  123. Language : German
  124. Default : No
  125. Forced : No
  126.  
  127. Text #7
  128. ID : 9
  129. Format : UTF-8
  130. Codec ID : S_TEXT/UTF8
  131. Codec ID/Info : UTF-8 Plain Text
  132. Title : Italian
  133. Language : Italian
  134. Default : No
  135. Forced : No
  136.  
  137. Text #8
  138. ID : 10
  139. Format : UTF-8
  140. Codec ID : S_TEXT/UTF8
  141. Codec ID/Info : UTF-8 Plain Text
  142. Title : Latin America Spanish
  143. Language : Spanish
  144. Default : No
  145. Forced : No
  146.  
  147. Text #9
  148. ID : 11
  149. Format : UTF-8
  150. Codec ID : S_TEXT/UTF8
  151. Codec ID/Info : UTF-8 Plain Text
  152. Title : Portuguese Brazilian
  153. Language : Portuguese
  154. Default : No
  155. Forced : No
  156.  
  157. Text #10
  158. ID : 12
  159. Format : UTF-8
  160. Codec ID : S_TEXT/UTF8
  161. Codec ID/Info : UTF-8 Plain Text
  162. Title : Turkish
  163. Language : Turkish
  164. Default : No
  165. Forced : No
  166.  
  167. Text #11
  168. ID : 13
  169. Format : UTF-8
  170. Codec ID : S_TEXT/UTF8
  171. Codec ID/Info : UTF-8 Plain Text
  172. Title : Vietnamese
  173. Language : Vietnamese
  174. Default : No
  175. Forced : No
RAW Paste Data