Guest User

Untitled

a guest
Jan 17th, 2020
85
Never
Not a member of Pastebin yet? Sign Up, it unlocks many cool features!
  1. General
  2. Unique ID: 205694529938047208924514752667167329130 (0x9ABF53516000FAE0865DB2CCBFA18B6A)
  3. Complete name: Idealnyi.dvorets.Ferdinanda.Shevalya.2018.WEB-DL.1080p.ELEKTRI4KA.UNIONGANG.mkv.mkv
  4. Format: Matroska
  5. Format version: Version 4 / Version 2
  6. File size: 4.11 GiB
  7. Duration: 1 h 44 min
  8. Overall bit rate: 5 630 kb/s
  9. Encoded date: UTC 2020-01-16 22:41:32
  10. Writing application: mkvmerge v8.3.0 ('Over the Horizon') 64bit
  11. Writing library: libebml v1.3.1 + libmatroska v1.4.2
  12.  
  13. Video
  14. ID: 1
  15. Format: AVC
  16. Format/Info: Advanced Video Codec
  17. Format profile: High@L4
  18. Format settings, CABAC: Yes
  19. Format settings, ReFrames: 4 frames
  20. Codec ID: V_MPEG4/ISO/AVC
  21. Duration: 1 h 44 min
  22. Bit rate: 5 244 kb/s
  23. Width: 1 920 pixels
  24. Height: 1 038 pixels
  25. Display aspect ratio: 1.85:1
  26. Frame rate mode: Constant
  27. Frame rate: 24.000 FPS
  28. Color space: YUV
  29. Chroma subsampling: 4:2:0
  30. Bit depth: 8 bits
  31. Scan type: Progressive
  32. Bits/(Pixel*Frame): 0.110
  33. Stream size: 3.82 GiB (93%)
  34. Title: iTunes (ELEKTRI4KA.UNIONGANG)
  35. Language: English
  36. Default: Yes
  37. Forced: No
  38. Color range: Limited
  39. Color primaries: BT.709
  40. Transfer characteristics: BT.709
  41. Matrix coefficients: BT.709
  42.  
  43. Audio
  44. ID: 2
  45. Format: AC-3
  46. Format/Info: Audio Coding 3
  47. Mode extension: CM (complete main)
  48. Format settings, Endianness: Big
  49. Codec ID: A_AC3
  50. Duration: 1 h 44 min
  51. Bit rate mode: Constant
  52. Bit rate: 384 kb/s
  53. Channel(s): 6 channels
  54. Channel positions: Front: L C R, Side: L R, LFE
  55. Sampling rate: 48.0 kHz
  56. Frame rate: 31.250 FPS (1536 spf)
  57. Bit depth: 16 bits
  58. Compression mode: Lossy
  59. Stream size: 287 MiB (7%)
  60. Title: iTunes (ELEKTRI4KA.UNIONGANG)
  61. Language: Russian
  62. Default: Yes
  63. Forced: No
  64.  
  65. Menu
  66. 00:00:00.000: en:?????????? 1
  67. 00:06:33.916: en:?????????? 2
  68. 00:13:22.790: en:?????????? 3
  69. 00:20:21.248: en:?????????? 4
  70. 00:27:05.913: en:?????????? 5
  71. 00:33:13.121: en:?????????? 6
  72. 00:43:00.954: en:?????????? 7
  73. 00:50:24.204: en:?????????? 8
  74. 00:59:18.287: en:?????????? 9
  75. 01:04:36.287: en:?????????? 10
  76. 01:09:53.287: en:?????????? 11
  77. 01:17:09.203: en:?????????? 12
  78. 01:23:32.035: en:?????????? 13
  79. 01:30:36.160: en:?????????? 14
  80. 01:35:47.576: en:?????????? 15
  81. 01:40:32.908: en:?????????? 16
RAW Paste Data

Adblocker detected! Please consider disabling it...

We've detected AdBlock Plus or some other adblocking software preventing Pastebin.com from fully loading.

We don't have any obnoxious sound, or popup ads, we actively block these annoying types of ads!

Please add Pastebin.com to your ad blocker whitelist or disable your adblocking software.

×