Henry_Kr

DS-S01

Feb 2nd, 2021
43
Never
Not a member of Pastebin yet? Sign Up, it unlocks many cool features!
  1. Video
  2. ID : 1
  3. Format : AVC
  4. Format/Info : Advanced Video Codec
  5. Format profile : High@L4.1
  6. Format settings : CABAC / 4 Ref Frames
  7. Format settings, CABAC : Yes
  8. Format settings, Reference : 4 frames
  9. Muxing mode : Header stripping
  10. Codec ID : V_MPEG4/ISO/AVC
  11. Duration : 24 min 10 s
  12. Bit rate : 8 000 kb/s
  13. Width : 1 920 pixels
  14. Height : 1 080 pixels
  15. Display aspect ratio : 16:9
  16. Frame rate mode : Constant
  17. Frame rate : 23.976 (24000/1001) FPS
  18. Color space : YUV
  19. Chroma subsampling : 4:2:0
  20. Bit depth : 8 bits
  21. Scan type : Progressive
  22. Bits/(Pixel*Frame) : 0.161
  23. Stream size : 1.32 GiB (80%)
  24. Title : Demon.Slayer.S01E01.Crueldade.1080p.BluRay.[CartoonNOW]
  25. Writing library : x264 core 157 r2935 545de2f
  26. Language : Japanese
  27. Default : Yes
  28. Forced : No
  29. Color range : Limited
  30. Color primaries : BT.709
  31. Transfer characteristics : BT.709
  32. Matrix coefficients : BT.709
  33.  
  34. Audio #1
  35. ID : 2
  36. Format : AC-3
  37. Format/Info : Audio Coding 3
  38. Commercial name : Dolby Digital
  39. Muxing mode : Header stripping
  40. Codec ID : A_AC3
  41. Duration : 24 min 10 s
  42. Bit rate mode : Constant
  43. Bit rate : 192 kb/s
  44. Channel(s) : 2 channels
  45. Channel layout : L R
  46. Sampling rate : 48.0 kHz
  47. Frame rate : 31.250 FPS (1536 SPF)
  48. Compression mode : Lossy
  49. Stream size : 33.2 MiB (2%)
  50. Title : AC3 2.0
  51. Language : Portuguese
  52. Service kind : Complete Main
  53. Default : Yes
  54. Forced : No
  55.  
  56. Audio #2
  57. ID : 3
  58. Format : DTS
  59. Format/Info : Digital Theater Systems
  60. Muxing mode : Header stripping
  61. Codec ID : A_DTS
  62. Duration : 24 min 10 s
  63. Bit rate mode : Constant
  64. Bit rate : 1 509 kb/s
  65. Channel(s) : 2 channels
  66. Channel layout : L R
  67. Sampling rate : 48.0 kHz
  68. Frame rate : 93.750 FPS (512 SPF)
  69. Bit depth : 16 bits
  70. Compression mode : Lossy
  71. Stream size : 261 MiB (16%)
  72. Title : DTS 2.0
  73. Language : Portuguese
  74. Default : No
  75. Forced : No
  76.  
  77. Text
  78. ID : 4
  79. Format : ASS
  80. Codec ID : S_TEXT/ASS
  81. Codec ID/Info : Advanced Sub Station Alpha
  82. Compression mode : Lossless
  83. Title : Completa
  84. Language : Portuguese
  85. Default : No
  86. Forced : No
  87.  
  88.  
RAW Paste Data