SHARE
TWEET

Free.Fire.2016.1080p.BluRay.REMUX.AVC.DTS-HD.MA.5.1-EPSiLON

a guest Jun 2nd, 2019 33 Never
Not a member of Pastebin yet? Sign Up, it unlocks many cool features!
  1. General
  2. Unique ID                                : 223797830137133402459385060445683716385 (0xA85DE4EDE5487206A6EAE9DE6E941121)
  3. Complete name                            : Free.Fire.2016.1080p.BluRay.REMUX.AVC.DTS-HD.MA.5.1-EPSiLON.mkv
  4. Format                                   : Matroska
  5. Format version                           : Version 4
  6. File size                                : 16.7 GiB
  7. Duration                                 : 1 h 30 min
  8. Overall bit rate mode                    : Variable
  9. Overall bit rate                         : 26.5 Mb/s
  10. Encoded date                             : UTC 2017-07-09 15:54:00
  11. Writing application                      : mkvmerge v13.0.0 ('The Juggler') 64bit
  12. Writing library                          : libebml v1.3.4 + libmatroska v1.4.5
  13.  
  14. Video
  15. ID                                       : 1
  16. Format                                   : AVC
  17. Format/Info                              : Advanced Video Codec
  18. Format profile                           : High@L4.1
  19. Format settings                          : CABAC / 4 Ref Frames
  20. Format settings, CABAC                   : Yes
  21. Format settings, Reference frames        : 4 frames
  22. Codec ID                                 : V_MPEG4/ISO/AVC
  23. Duration                                 : 1 h 30 min
  24. Bit rate mode                            : Variable
  25. Bit rate                                 : 22.5 Mb/s
  26. Maximum bit rate                         : 37.0 Mb/s
  27. Width                                    : 1 920 pixels
  28. Height                                   : 1 080 pixels
  29. Display aspect ratio                     : 16:9
  30. Frame rate mode                          : Constant
  31. Frame rate                               : 23.976 (24000/1001) FPS
  32. Color space                              : YUV
  33. Chroma subsampling                       : 4:2:0
  34. Bit depth                                : 8 bits
  35. Scan type                                : Progressive
  36. Bits/(Pixel*Frame)                       : 0.452
  37. Stream size                              : 14.2 GiB (85%)
  38. Title                                    : MPEG-4 AVC Video / 1080p / 23.976 fps / 16:9 / High Profile 4.1
  39. Language                                 : English
  40. Default                                  : Yes
  41. Forced                                   : No
  42.  
  43. Audio #1
  44. ID                                       : 2
  45. Format                                   : DTS XLL
  46. Format/Info                              : Digital Theater Systems
  47. Commercial name                          : DTS-HD Master Audio
  48. Codec ID                                 : A_DTS
  49. Duration                                 : 1 h 30 min
  50. Bit rate mode                            : Variable
  51. Bit rate                                 : 3 720 kb/s
  52. Channel(s)                               : 6 channels
  53. Channel layout                           : C L R Ls Rs LFE
  54. Sampling rate                            : 48.0 kHz
  55. Frame rate                               : 93.750 FPS (512 SPF)
  56. Bit depth                                : 24 bits
  57. Compression mode                         : Lossless
  58. Stream size                              : 2.35 GiB (14%)
  59. Title                                    : DTS-HD Master Audio / 5.1 / 48 kHz / 3724 kbps / 24-bit
  60. Language                                 : English
  61. Default                                  : Yes
  62. Forced                                   : No
  63.  
  64. Audio #2
  65. ID                                       : 3
  66. Format                                   : AC-3
  67. Format/Info                              : Audio Coding 3
  68. Commercial name                          : Dolby Digital
  69. Codec ID                                 : A_AC3
  70. Duration                                 : 1 h 30 min
  71. Bit rate mode                            : Constant
  72. Bit rate                                 : 224 kb/s
  73. Channel(s)                               : 2 channels
  74. Channel layout                           : L R
  75. Sampling rate                            : 48.0 kHz
  76. Frame rate                               : 31.250 FPS (1536 SPF)
  77. Bit depth                                : 16 bits
  78. Compression mode                         : Lossy
  79. Stream size                              : 145 MiB (1%)
  80. Title                                    : Commentary by director Ben Wheatley and actors Cillian Murphy and Jack Reynor
  81. Language                                 : English
  82. Service kind                             : Complete Main
  83. Default                                  : No
  84. Forced                                   : No
  85.  
  86. Text #1
  87. ID                                       : 4
  88. Format                                   : PGS
  89. Codec ID                                 : S_HDMV/PGS
  90. Codec ID/Info                            : Picture based subtitle format used on BDs/HD-DVDs
  91. Duration                                 : 1 h 24 min
  92. Bit rate                                 : 45.1 kb/s
  93. Count of elements                        : 2908
  94. Stream size                              : 27.2 MiB (0%)
  95. Title                                    : SDH
  96. Language                                 : English
  97. Default                                  : No
  98. Forced                                   : No
  99.  
  100. Text #2
  101. ID                                       : 5
  102. Format                                   : PGS
  103. Codec ID                                 : S_HDMV/PGS
  104. Codec ID/Info                            : Picture based subtitle format used on BDs/HD-DVDs
  105. Duration                                 : 1 h 22 min
  106. Bit rate                                 : 35.3 kb/s
  107. Count of elements                        : 2195
  108. Stream size                              : 20.8 MiB (0%)
  109. Title                                    : Latin American
  110. Language                                 : Spanish
  111. Default                                  : No
  112. Forced                                   : No
  113.  
  114. Menu
  115. 00:00:00.000                             : en:Chapter 1
  116. 00:07:31.368                             : en:Chapter 2
  117. 00:09:32.655                             : en:Chapter 3
  118. 00:15:12.036                             : en:Chapter 4
  119. 00:20:35.693                             : en:Chapter 5
  120. 00:27:40.867                             : en:Chapter 6
  121. 00:32:48.300                             : en:Chapter 7
  122. 00:37:54.022                             : en:Chapter 8
  123. 00:43:09.795                             : en:Chapter 9
  124. 00:48:48.008                             : en:Chapter 10
  125. 00:54:27.639                             : en:Chapter 11
  126. 00:59:18.096                             : en:Chapter 12
  127. 01:05:36.432                             : en:Chapter 13
  128. 01:09:08.102                             : en:Chapter 14
  129. 01:15:16.887                             : en:Chapter 15
  130. 01:22:35.117                             : en:Chapter 16
RAW Paste Data
We use cookies for various purposes including analytics. By continuing to use Pastebin, you agree to our use of cookies as described in the Cookies Policy. OK, I Understand
Top