AlemaoPS

Untitled

Aug 15th, 2019
189
Never
Not a member of Pastebin yet? Sign Up, it unlocks many cool features!
  1. Format : Matroska
  2. Format version : Version 4
  3. File size : 36.2 GiB
  4. Duration : 3 h 1 min
  5. Overall bit rate mode : Variable
  6. Overall bit rate : 28.6 Mb/s
  7. Movie name : Avengers.Endgame.2019.REMUX.1080p.BluRay.AVC.DTS-HD.MA.7.1-Du
  8. Encoded date : UTC 2019-08-03 13:34:20
  9. Writing application : mkvmerge v35.0.0 ('All The Love In The World') 64-bit
  10. Writing library : libebml v1.3.9 + libmatroska v1.5.2
  11.  
  12. Video
  13. ID : 1
  14. Format : AVC
  15. Format/Info : Advanced Video Codec
  16. Format profile : High@L4.1
  17. Format settings : CABAC / 4 Ref Frames
  18. Format settings, CABAC : Yes
  19. Format settings, Reference : 4 frames
  20. Codec ID : V_MPEG4/ISO/AVC
  21. Duration : 3 h 1 min
  22. Bit rate mode : Variable
  23. Bit rate : 23.2 Mb/s
  24. Maximum bit rate : 34.0 Mb/s
  25. Width : 1 920 pixels
  26. Height : 1 080 pixels
  27. Display aspect ratio : 16:9
  28. Frame rate mode : Constant
  29. Frame rate : 23.976 (24000/1001) FPS
  30. Color space : YUV
  31. Chroma subsampling : 4:2:0
  32. Bit depth : 8 bits
  33. Scan type : Progressive
  34. Bits/(Pixel*Frame) : 0.466
  35. Stream size : 29.3 GiB (81%)
  36. Default : Yes
  37. Forced : No
  38.  
  39. Audio #1
  40. ID : 2
  41. Format : AC-3
  42. Format/Info : Audio Coding 3
  43. Commercial name : Dolby Digital
  44. Codec ID : A_AC3
  45. Duration : 3 h 1 min
  46. Bit rate mode : Constant
  47. Bit rate : 384 kb/s
  48. Channel(s) : 6 channels
  49. Channel layout : L R C LFE Ls Rs
  50. Sampling rate : 48.0 kHz
  51. Frame rate : 31.250 FPS (1536 SPF)
  52. Bit depth : 16 bits
  53. Compression mode : Lossy
  54. Stream size : 498 MiB (1%)
  55. Title : AC3 5.1 Smeagol
  56. Language : Portuguese
  57. Service kind : Complete Main
  58. Default : Yes
  59. Forced : No
  60.  
  61. Audio #2
  62. ID : 3
  63. Format : DTS XLL
  64. Format/Info : Digital Theater Systems
  65. Commercial name : DTS-HD Master Audio
  66. Codec ID : A_DTS
  67. Duration : 3 h 1 min
  68. Bit rate mode : Variable
  69. Bit rate : 5 028 kb/s
  70. Channel(s) : 8 channels
  71. Channel layout : C L R LFE Lb Rb Lss Rss
  72. Sampling rate : 48.0 kHz
  73. Frame rate : 93.750 FPS (512 SPF)
  74. Bit depth : 24 bits
  75. Compression mode : Lossless
  76. Stream size : 6.36 GiB (18%)
  77. Title : DTS-HD MA 7.1
  78. Language : English
  79. Default : No
  80. Forced : No
  81.  
  82. Text #1
  83. ID : 4
  84. Format : UTF-8
  85. Codec ID : S_TEXT/UTF8
  86. Codec ID/Info : UTF-8 Plain Text
  87. Duration : 2 h 22 min
  88. Bit rate : 0 b/s
  89. Count of elements : 28
  90. Stream size : 703 Bytes (0%)
  91. Title : Portuguese-STR-Forced
  92. Language : Portuguese
  93. Default : Yes
  94. Forced : No
  95.  
  96. Text #2
  97. ID : 5
  98. Format : UTF-8
  99. Codec ID : S_TEXT/UTF8
  100. Codec ID/Info : UTF-8 Plain Text
  101. Duration : 3 h 0 min
  102. Bit rate : 44 b/s
  103. Count of elements : 2191
  104. Stream size : 59.6 KiB (0%)
  105. Title : Portuguese-SRT
  106. Language : Portuguese
  107. Default : No
  108. Forced : No
  109.  
  110. Text #3
  111. ID : 6
  112. Format : PGS
  113. Muxing mode : zlib
  114. Codec ID : S_HDMV/PGS
  115. Codec ID/Info : Picture based subtitle format used on BDs/HD-DVDs
  116. Duration : 3 h 0 min
  117. Bit rate : 33.9 kb/s
  118. Count of elements : 5266
  119. Stream size : 43.8 MiB (0%)
  120. Title : SDH
  121. Language : English
  122. Default : No
  123. Forced : No
  124.  
  125. Text #4
  126. ID : 7
  127. Format : PGS
  128. Muxing mode : zlib
  129. Codec ID : S_HDMV/PGS
  130. Codec ID/Info : Picture based subtitle format used on BDs/HD-DVDs
  131. Duration : 2 h 52 min
  132. Bit rate : 28.5 kb/s
  133. Count of elements : 4446
  134. Stream size : 35.0 MiB (0%)
  135. Language : French
  136. Default : No
  137. Forced : No
  138.  
  139. Text #5
  140. ID : 8
  141. Format : PGS
  142. Muxing mode : zlib
  143. Codec ID : S_HDMV/PGS
  144. Codec ID/Info : Picture based subtitle format used on BDs/HD-DVDs
  145. Duration : 2 h 47 min
  146. Bit rate : 31.0 kb/s
  147. Count of elements : 4394
  148. Stream size : 37.3 MiB (0%)
  149. Language : Spanish
  150. Default : No
  151. Forced : No
RAW Paste Data

Adblocker detected! Please consider disabling it...

We've detected AdBlock Plus or some other adblocking software preventing Pastebin.com from fully loading.

We don't have any obnoxious sound, or popup ads, we actively block these annoying types of ads!

Please add Pastebin.com to your ad blocker whitelist or disable your adblocking software.

×