SHARE
TWEET

Untitled

a guest Jul 4th, 2019 24 Never
Not a member of Pastebin yet? Sign Up, it unlocks many cool features!
  1. ffmpeg version N-94156-g93a73df54d Copyright (c) 2000-2019 the FFmpeg developers
  2.   built with gcc 9.1.1 (GCC) 20190621
  3.   configuration: --enable-gpl --enable-version3 --enable-sdl2 --enable-fontconfig --enable-gnutls --enable-iconv --enable-libass --enable-libdav1d --enable-libbluray --enable-libfreetype --enable-libmp3lame --enab
  4. le-libopencore-amrnb --enable-libopencore-amrwb --enable-libopenjpeg --enable-libopus --enable-libshine --enable-libsnappy --enable-libsoxr --enable-libtheora --enable-libtwolame --enable-libvpx --enable-libwavpac
  5. k --enable-libwebp --enable-libx264 --enable-libx265 --enable-libxml2 --enable-libzimg --enable-lzma --enable-zlib --enable-gmp --enable-libvidstab --enable-libvorbis --enable-libvo-amrwbenc --enable-libmysofa --e
  6. nable-libspeex --enable-libxvid --enable-libaom --enable-libmfx --enable-amf --enable-ffnvcodec --enable-cuvid --enable-d3d11va --enable-nvenc --enable-nvdec --enable-dxva2 --enable-avisynth --enable-libopenmpt
  7.   libavutil      56. 30.100 / 56. 30.100
  8.   libavcodec     58. 53.101 / 58. 53.101
  9.   libavformat    58. 28.101 / 58. 28.101
  10.   libavdevice    58.  7.100 / 58.  7.100
  11.   libavfilter     7. 56.100 /  7. 56.100
  12.   libswscale      5.  4.101 /  5.  4.101
  13.   libswresample   3.  4.100 /  3.  4.100
  14.   libpostproc    55.  4.100 / 55.  4.100
  15. Input #0, concat, from 'mylist.txt':
  16.   Duration: N/A, start: 0.000000, bitrate: N/A
  17.     Stream #0:0(eng): Audio: opus, 48000 Hz, mono, fltp
  18.     Stream #0:1(eng): Video: vp9 (Profile 0), yuv420p(tv), 1920x1080, SAR 1:1 DAR 16:9, 16.67 fps, 16.67 tbr, 1k tbn, 1k tbc
  19.     Metadata:
  20.       alpha_mode      : 1
  21. File 'undivided.webm' already exists. Overwrite ? [y/N] y
  22. Output #0, webm, to 'undivided.webm':
  23.   Metadata:
  24.     encoder         : Lavf58.28.101
  25.     Stream #0:0(eng): Video: vp9 (Profile 0), yuv420p(tv), 1920x1080 [SAR 1:1 DAR 16:9], q=2-31, 16.67 fps, 16.67 tbr, 1k tbn, 1k tbc
  26.     Metadata:
  27.       alpha_mode      : 1
  28.     Stream #0:1(eng): Audio: opus, 48000 Hz, mono, fltp
  29. Stream mapping:
  30.   Stream #0:1 -> #0:0 (copy)
  31.   Stream #0:0 -> #0:1 (copy)
  32. Press [q] to stop, [?] for help
  33. frame=  496 fps=0.0 q=-1.0 Lsize=   12628kB time=00:00:28.42 bitrate=3639.1kbits/s speed=30.7x
  34. video:12508kB audio:113kB subtitle:0kB other streams:0kB global headers:0kB muxing overhead: 0.057648%
RAW Paste Data
We use cookies for various purposes including analytics. By continuing to use Pastebin, you agree to our use of cookies as described in the Cookies Policy. OK, I Understand
Top