SHARE
TWEET

Paris by Night 123: Ảo Ảnh 2017 720p BluRay DD2.0 x264-HDT

a guest Dec 2nd, 2017 434 Never
Not a member of Pastebin yet? Sign Up, it unlocks many cool features!
  1. General
  2. Unique ID                                : 232836533649275933518941817244181831524 (0xAF2AAF6B3FDBB4F5B5EE0CFF97439F64)
  3. Complete name                            : F:\Paris.by.Night.123.Ao.Anh.2017.720p.BluRay.DD2.0.x264-HDT\Paris.by.Night.123.Ao.Anh.2017.720p.BluRay.DD2.0.x264-HDT.mkv
  4. Format                                   : Matroska
  5. Format version                           : Version 4 / Version 2
  6. File size                                : 20.0 GiB
  7. Duration                                 : 6h 10mn
  8. Overall bit rate                         : 7 730 Kbps
  9. Movie name                               : Paris by Night 123 Ao Anh 2017 720p BluRay DD2.0 x264-HDT
  10. Encoded date                             : UTC 2017-12-02 18:35:29
  11. Writing application                      : mkvmerge v8.2.0 ('World of Adventure') 64bit
  12. Writing library                          : libebml v1.3.1 + libmatroska v1.4.2
  13. DURATION                                 : 06:10:03.424000000
  14. NUMBER_OF_FRAMES                         : 693857
  15. NUMBER_OF_BYTES                          : 1243391744
  16. _STATISTICS_WRITING_APP                  : mkvmerge v8.2.0 ('World of Adventure') 64bit
  17. _STATISTICS_WRITING_DATE_UTC             : 2017-12-02 18:35:29
  18. _STATISTICS_TAGS                         : BPS DURATION NUMBER_OF_FRAMES NUMBER_OF_BYTES
  19. Attachment                               : Yes
  20.  
  21. Video
  22. ID                                       : 1
  23. Format                                   : AVC
  24. Format/Info                              : Advanced Video Codec
  25. Format profile                           : High@L4.1
  26. Format settings, CABAC                   : Yes
  27. Format settings, ReFrames                : 9 frames
  28. Codec ID                                 : V_MPEG4/ISO/AVC
  29. Duration                                 : 6h 10mn
  30. Bit rate                                 : 7 128 Kbps
  31. Width                                    : 1 280 pixels
  32. Height                                   : 720 pixels
  33. Display aspect ratio                     : 16:9
  34. Frame rate mode                          : Constant
  35. Frame rate                               : 29.970 fps
  36. Color space                              : YUV
  37. Chroma subsampling                       : 4:2:0
  38. Bit depth                                : 8 bits
  39. Scan type                                : Progressive
  40. Bits/(Pixel*Frame)                       : 0.258
  41. Stream size                              : 18.4 GiB (92%)
  42. Title                                    : Paris by Night 123 Ao Anh 2017 720p BluRay DD2.0 x264-HDT
  43. Writing library                          : x264 core 152 r2851+58 429492e t_mod_Custom [8-bit@all X86_64]
  44. Encoding settings                        : cabac=1 / ref=9 / deblock=1:-3:-3 / analyse=0x3:0x133 / me=umh / subme=9 / psy=1 / fade_compensate=0.00 / psy_rd=1.00:0.00 / mixed_ref=1 / me_range=16 / chroma_me=1 / trellis=2 / 8x8dct=1 / cqm=0 / deadzone=21,11 / fast_pskip=0 / chroma_qp_offset=-2 / threads=12 / lookahead_threads=2 / sliced_threads=0 / nr=0 / decimate=0 / interlaced=0 / bluray_compat=0 / constrained_intra=0 / fgo=0 / bframes=7 / b_pyramid=2 / b_adapt=2 / b_bias=0 / direct=3 / weightb=1 / open_gop=0 / weightp=2 / keyint=250 / keyint_min=25 / scenecut=40 / intra_refresh=0 / rc_lookahead=60 / rc=crf / mbtree=0 / crf=17.3000 / qcomp=0.65 / qpmin=0:0:0 / qpmax=69:69:69 / qpstep=4 / vbv_maxrate=62500 / vbv_bufsize=78125 / crf_max=0.0 / nal_hrd=none / filler=0 / ip_ratio=1.30 / pb_ratio=1.20 / aq=3:0.80 / aq-sensitivity=10.00 / aq-factor=1.00:1.00:1.00 / aq2=0 / aq3=0 / zones=0,1904,b=2.5
  45. Language                                 : Vietnamese
  46. Default                                  : Yes
  47. Forced                                   : No
  48. Matrix coefficients                      : BT.709
  49. DURATION                                 : 06:10:03.481000000
  50. NUMBER_OF_FRAMES                         : 665439
  51. NUMBER_OF_BYTES                          : 20203595384
  52. _STATISTICS_WRITING_APP                  : mkvmerge v8.2.0 ('World of Adventure') 64bit
  53. _STATISTICS_WRITING_DATE_UTC             : 2017-12-02 18:35:29
  54. _STATISTICS_TAGS                         : BPS DURATION NUMBER_OF_FRAMES NUMBER_OF_BYTES
  55.  
  56. Audio
  57. ID                                       : 2
  58. Format                                   : AC-3
  59. Format/Info                              : Audio Coding 3
  60. Mode extension                           : CM (complete main)
  61. Format settings, Endianness              : Big
  62. Codec ID                                 : A_AC3
  63. Duration                                 : 6h 10mn
  64. Bit rate mode                            : Constant
  65. Bit rate                                 : 448 Kbps
  66. Channel count                            : 2 channels
  67. Channel positions                        : Front: L R
  68. Sampling rate                            : 48.0 KHz
  69. Bit depth                                : 16 bits
  70. Compression mode                         : Lossy
  71. Stream size                              : 1.16 GiB (6%)
  72. Language                                 : Vietnamese
  73. Default                                  : Yes
  74. Forced                                   : No
  75.  
  76. Menu
  77. 00:00:00.000                             : vi:01. Phần Mở Đầu
  78. 00:00:12.112                             : vi:02. LK Yêu Nhau Đi (Lời Việt: Thái Thịnh) LAM ANH. Ảo Ảnh (Y Vân) THIÊN TÔN. Thôi Đừng Thờ Ơ (Lời Việt: Thái Thịnh) NGUYỄN HƯNG
  79. 00:12:55.942                             : vi:03. Lời Mở Đầu – Nguyễn Ngọc Ngạn, Kỳ Duyên
  80. 00:17:09.629                             : vi:04. Bài Không Tên Số 7 (Vũ Thành An) Ý LAN
  81. 00:24:26.198                             : vi:05. Chuyện Bây Giờ Đã Muộn (Hamlet Trương) KHẢI ĐĂNG
  82. 00:31:44.269                             : vi:06. Nối Lại Tình Xưa (Ngân Giang) HƯƠNG LAN & CHẾ LINH
  83. 00:37:43.161                             : vi:07. Sương Trắng Miền Quê Ngoại (Đinh Miên Vũ) MAI QUỐC HUY & KHÁNH LÂM
  84. 00:43:42.854                             : vi:08. Đố Vui Khán Giả
  85. 00:58:00.277                             : vi:09. Jason Latimer Act 1 – Solid Through Solid
  86. 01:01:14.704                             : vi:10. Jason Latimer Act 2 – Science vs. Magic
  87. 01:02:08.792                             : vi:11. Đố Vui Khán Giả
  88. 01:17:15.598                             : vi:12. Cơn Mưa Trong Đời (Lời Việt: Khúc Lan) NHƯ LOAN
  89. 01:21:27.216                             : vi:13. Nhạc Tình Đêm Mưa (Lời Việt: Khúc Lan) HÀ THANH XUÂN
  90. 01:24:47.783                             : vi:14. Phỏng Vấn Hoa Hậu Thu Hoài, CEO Viện Thẩm Mỹ Khơ Thị
  91. 01:30:02.197                             : vi:15. Trong Nỗi Nhớ Muộn Màng (Ngô Thụy Miên) NGỌC HẠ & TRẦN THÁI HÒA
  92. 01:37:51.099                             : vi:16. Gửi Về Anh (Đỗ Thu) THANH TUYỀN & MAI THIÊN VÂN
  93. 01:45:54.715                             : vi:17. Hai Mùa Mưa (Mạc Phong Linh & Mai Thiết Lĩnh) NGỌC NGỮ & ĐẶNG HÀ DUY
  94. 01:51:41.995                             : vi:18. Hài Kịch “Từ Thiện” (Trung Dân) Hoài Linh, Chí Tài, Trung Dân, Thanh Phương
  95. 02:26:14.432                             : vi:19. Jason Latimer Act 3 – Shaping Water
  96. 02:29:41.306                             : vi:20. Bạc Trắng Lửa Hồng (Thy Linh) PHI NHUNG & ĐAN NGUYÊN
  97. 02:34:54.385                             : vi:21. Đố Vui Khán Giả
  98. 02:46:04.588                             : vi:22. Muốn Nghe Từ Em Nói (Võ Hoài Phúc) DƯƠNG TRIỆU VŨ
  99. 02:50:29.419                             : vi:23. Phỏng Vấn David Anthony, Trợ Lý Giám Đốc Cty Nhựa Chợ Lớn
  100. 02:53:35.071                             : vi:24. Hư Ảo (Diệu Hương) BẰNG KIỀU
  101. 02:58:06.409                             : vi:25. Từ Lúc Mình Chia Tay (Thái Thịnh) HOÀNG THÚY VY
  102. 03:04:43.205                             : vi:26. Tấm Ảnh Không Hồn (Hoài An) HOÀNG NHUNG & CHÂU NGỌC HÀ
  103. 03:10:27.082                             : vi:27. Phỏng Vấn Cô Kim Ngô, CEO To Be Skincare
  104. 03:14:29.658                             : vi:28. Đêm Lạnh (Phúc Trường) LƯƠNG TÙNG QUANG & LAM ANH
  105. 03:22:19.928                             : vi:29. Yêu Tiếng Hát Ngày Xưa (Thanh Sơn) TÂM ĐOAN & HẠ VY
  106. 03:28:37.205                             : vi:30. Tân cổ Hương Tóc Mạ Non (Thanh Sơn, Vọng cổ: Hoàng Song Việt) HƯƠNG THỦY & KIM TIỂU LONG
  107. 03:36:39.920                             : vi:31. Jason Latimer Act 4 – Depiction of Wonder
  108. 03:41:42.790                             : vi:32. Hài Kịch “Bài Học Nhớ Đời” (Nguyễn Ngọc Ngạn) Việt Hương, Chí Tài, Thúy Nga, Hoài Tâm
  109. 04:19:02.727                             : vi:33. Phỏng Vấn Cô Trần Uyên Phương, Phó Tổng Giám Đốc Tập Đoàn Tân Hiệp Phát
  110. 04:23:22.620                             : vi:34. Hoang Vắng (Quốc Dũng) QUỲNH VI & KỲ PHƯƠNG UYÊN
  111. 04:28:45.643                             : vi:35. Phỏng Vấn Ông Lộc Dương, CEO Cty DND Gel
  112. 04:34:22.513                             : vi:36. Xót Xa (Lam Phương) HOÀI LÂM
  113. 04:42:31.101                             : vi:37. Lan & Điệp 4 (Hamlet Trương) NHƯ QUỲNH
  114. 04:48:54.651                             : vi:38. Jason Latimer Act 5 – Drawing of Life
  115. 04:51:07.550                             : vi:39. Why? (Châu Đăng Khoa) NHƯ Ý
  116. 04:55:41.490                             : vi:40. Đố Vui Khán Giả
  117. 05:12:16.785                             : vi:41. Tìm Trong Giấc Mơ (Bảo An) ĐAN NGUYÊN
  118. 05:18:11.639                             : vi:42. Người Yêu Củ Có Người Yêu Mới (Hamlet Trương) DON HỒ
  119. 05:22:04.539                             : vi:43. Nước Mắt (Hamlet Trương) DIỄM SƯƠNG
  120. 05:30:28.108                             : vi:44. Có Cũng Như Không (Võ Hoài Phúc) MINH TUYẾT
  121. 05:36:47.387                             : vi:45. Lẻ Bóng (Lê Dinh & Anh Bằng) & Ai Cho Tôi Tình Yêu (Trúc Phương) HOÀNG OANH, NHƯ QUỲNH, PHI NHUNG, TÂM ĐOAN, MAI THIÊN VÂN
  122. 05:53:02.161                             : vi:46. LK Trịnh Công Sơn (Rừng Xưa Đã Khép, Phôi Pha, Lời Thiên Thu Gọi) NGỌC ANH & QUANG DŨNG
  123. 06:00:25.104                             : vi:47. Lời Kết – Nguyễn Ngọc Ngạn, Kỳ Duyên
  124. 06:02:14.646                             : vi:48. Yêu Nhau Ngày Hôm Nay Thôi (Dương Khắc Linh & Nguyễn Hồng Vịnh) HOÀNG MỸ AN
  125. 06:06:09.281                             : vi:49. Finale
  126. 06:10:02.947                             : vi:50. End
RAW Paste Data
We use cookies for various purposes including analytics. By continuing to use Pastebin, you agree to our use of cookies as described in the Cookies Policy. OK, I Understand
 
Top