GrabHD

Untitled

Mar 3rd, 2020
1,292
Never
Not a member of Pastebin yet? Sign Up, it unlocks many cool features!
  1. Общее
  2. Уникальный идентификатор : 183834848964066241618322183629488100239 (0x8A4D4DD5D6E1A38A948F62DBA21D938F)
  3. Полное имя : D:\Раздача\Халепа на 5 baksiv (2019) WEB-DL [Hurtom] UKR.RUS.1080p.mkv
  4. Формат : Matroska
  5. Версия формата : Version 4 / Version 2
  6. Размер файла : 3,36 Гбайт
  7. Продолжительность : 1 ч. 20 м.
  8. Режим общего битрейта : Переменный
  9. Общий поток : 6020 Кбит/сек
  10. Дата кодирования : UTC 2020-03-04 01:01:58
  11. Программа кодирования : mkvmerge v7.3.0 ('Nouages') 64bit built on Oct 22 2014 18:53:34
  12. Библиотека кодирования : libebml v1.3.0 + libmatroska v1.4.1
  13.  
  14. Видео
  15. Идентификатор : 1
  16. Формат : AVC
  17. Формат/Информация : Advanced Video Codec
  18. Профиль формата : High@L4
  19. Настройки формата : CABAC / 2 Ref Frames
  20. Параметр CABAC формата : Да
  21. Параметр RefFrames формата : 2 кадра
  22. Идентификатор кодека : V_MPEG4/ISO/AVC
  23. Продолжительность : 1 ч. 19 м.
  24. Вид битрейта : Переменный
  25. Битрейт : 5892 Кбит/сек
  26. Максимальный битрейт : 8000 Кбит/сек
  27. Ширина : 1920 пикселей
  28. Высота : 1080 пикселей
  29. Соотношение сторон : 16:9
  30. Режим частоты кадров : Постоянный
  31. Частота кадров : 25,000 кадров/сек
  32. Стандарт вещания : PAL
  33. Цветовое пространство : YUV
  34. Субдискретизация насыщенности : 4:2:0
  35. Битовая глубина : 8 бит
  36. Тип развёртки : Прогрессивная
  37. Бит/(Пиксели*Кадры) : 0.114
  38. Размер потока : 3,29 Гбайт (98%)
  39. Default : Да
  40. Forced : Нет
  41. Цветовой диапазон : Limited
  42. Основные цвета : BT.709
  43. Характеристики трансфера : BT.709
  44. Коэффициенты матрицы : BT.709
  45.  
  46. Аудио
  47. Идентификатор : 2
  48. Формат : AAC
  49. Формат/Информация : Advanced Audio Codec
  50. Профиль формата : LC
  51. Идентификатор кодека : A_AAC-2
  52. Продолжительность : 1 ч. 20 м.
  53. Битрейт : 125 Кбит/сек
  54. Каналы : 2 канала
  55. Расположение каналов : Front: L R
  56. Частота : 48,0 КГц
  57. Частота кадров : 46,875 кадров/сек (1024 SPF)
  58. Метод сжатия : С потерями
  59. Задержка видео : -40 мс.
  60. Размер потока : 71,8 Мбайт (2%)
  61. Default : Да
  62. Forced : Нет
RAW Paste Data