SHARE
TWEET

Untitled

mft39anton Oct 24th, 2018 64 Never
Not a member of Pastebin yet? Sign Up, it unlocks many cool features!
  1. General
  2. Complete name                            : F:\Le.Bureau.Des.Legendes.S04.EP05.mp4
  3. Format                                   : MPEG-4
  4. Format profile                           : Base Media / Version 2
  5. Codec ID                                 : mp42 (mp42/mp41)
  6. File size                                : 1.14 GiB
  7. Duration                                 : 51 min 1 s
  8. Overall bit rate mode                    : Variable
  9. Overall bit rate                         : 3 192 kb/s
  10. Encoded date                             : UTC 2018-10-24 00:27:21
  11. Tagged date                              : UTC 2018-10-24 00:28:38
  12. TIM                                      : 00:00:00:00
  13. TSC                                      : 30000
  14. TSZ                                      : 1001
  15.  
  16. Video
  17. ID                                       : 1
  18. Format                                   : AVC
  19. Format/Info                              : Advanced Video Codec
  20. Format profile                           : Main@L4.1
  21. Format settings                          : CABAC / 4 Ref Frames
  22. Format settings, CABAC                   : Yes
  23. Format settings, RefFrames               : 4 frames
  24. Format settings, GOP                     : M=4, N=29
  25. Codec ID                                 : avc1
  26. Codec ID/Info                            : Advanced Video Coding
  27. Duration                                 : 51 min 1 s
  28. Bit rate                                 : 2 998 kb/s
  29. Width                                    : 1 920 pixels
  30. Height                                   : 1 080 pixels
  31. Display aspect ratio                     : 16:9
  32. Frame rate mode                          : Constant
  33. Frame rate                               : 29.970 (30000/1001) FPS
  34. Standard                                 : NTSC
  35. Color space                              : YUV
  36. Chroma subsampling                       : 4:2:0
  37. Bit depth                                : 8 bits
  38. Scan type                                : Progressive
  39. Bits/(Pixel*Frame)                       : 0.048
  40. Stream size                              : 1.07 GiB (94%)
  41. Language                                 : English
  42. Encoded date                             : UTC 2018-10-24 00:27:21
  43. Tagged date                              : UTC 2018-10-24 00:27:21
  44. Color range                              : Limited
  45. Color primaries                          : BT.709
  46. Transfer characteristics                 : BT.709
  47. Matrix coefficients                      : BT.709
  48.  
  49. Audio
  50. ID                                       : 2
  51. Format                                   : AAC
  52. Format/Info                              : Advanced Audio Codec
  53. Format profile                           : LC
  54. Codec ID                                 : mp4a-40-2
  55. Duration                                 : 51 min 1 s
  56. Source duration                          : 51 min 1 s
  57. Bit rate mode                            : Variable
  58. Bit rate                                 : 192 kb/s
  59. Maximum bit rate                         : 304 kb/s
  60. Channel(s)                               : 2 channels
  61. Channel positions                        : Front: L R
  62. Sampling rate                            : 48.0 kHz
  63. Frame rate                               : 46.875 FPS (1024 SPF)
  64. Compression mode                         : Lossy
  65. Stream size                              : 69.1 MiB (6%)
  66. Source stream size                       : 69.1 MiB (6%)
  67. Language                                 : English
  68. Encoded date                             : UTC 2018-10-24 00:27:21
  69. Tagged date                              : UTC 2018-10-24 00:27:21
RAW Paste Data
We use cookies for various purposes including analytics. By continuing to use Pastebin, you agree to our use of cookies as described in the Cookies Policy. OK, I Understand
Not a member of Pastebin yet?
Sign Up, it unlocks many cool features!
 
Top