SHARE
TWEET

Untitled

a guest Jun 6th, 2014 248 Never
Not a member of Pastebin yet? Sign Up, it unlocks many cool features!
  1. Общее
  2. Midnight.FM.2010.Blu.Ray.720p.CINEMANIA.mkv
  3. Формат : Matroska
  4. Версия формата : Version 4 / Version 2
  5. Размер файла : 4,69 Гбайт
  6. Продолжительность : 1 ч. 43 м.
  7. Общий поток : 6486 Кбит/сек
  8. Название фильма : Release Group CINEMANIA
  9. Дата кодирования : UTC 2014-06-06 09:37:35
  10. Программа кодирования : mkvmerge v6.9.1 ('Blue Panther') 64bit built on Apr 18 2014 18:23:38
  11. Библиотека кодирования : libebml v1.3.0 + libmatroska v1.4.1
  12.  
  13. Видео
  14. Идентификатор : 1
  15. Формат : AVC
  16. Формат/Информация : Advanced Video Codec
  17. Профиль формата : High@L4.1
  18. Параметр CABAC формата : Да
  19. Параметр ReFrames формата : 10 кадров
  20. Идентификатор кодека : V_MPEG4/ISO/AVC
  21. Продолжительность : 1 ч. 43 м.
  22. Битрейт : 5397 Кбит/сек
  23. Ширина : 1280 пикселей
  24. Высота : 546 пикселей
  25. Соотношение сторон : 2,35:1
  26. Режим частоты кадров : Постоянный
  27. Частота кадров : 23,976 кадра/сек
  28. Цветовое пространство : YUV
  29. Субдискретизация насыщенности : 4:2:0
  30. Битовая глубина : 8 бит
  31. Тип развёртки : Прогрессивная
  32. Бит/(Пиксели*Кадры) : 0.322
  33. Размер потока : 3,81 Гбайт (81%)
  34. Заголовок : Release Group CINEMANIA
  35. Библиотека кодирования : x264 core 138 r2358 9e941d1
  36. Настройки программы : cabac=1 / ref=10 / deblock=1:-3:-3 / analyse=0x3:0x113 / me=umh / subme=10 / psy=1 / psy_rd=1.10:0.10 / mixed_ref=1 / me_range=32 / chroma_me=1 / trellis=2 / 8x8dct=1 / cqm=0 / deadzone=21,11 / fast_pskip=0 / chroma_qp_offset=-2 / threads=12 / lookahead_threads=1 / sliced_threads=0 / nr=0 / decimate=1 / interlaced=0 / bluray_compat=0 / constrained_intra=0 / bframes=4 / b_pyramid=2 / b_adapt=2 / b_bias=0 / direct=3 / weightb=1 / open_gop=0 / weightp=2 / keyint=250 / keyint_min=23 / scenecut=40 / intra_refresh=0 / rc=2pass / mbtree=0 / bitrate=5397 / ratetol=1.0 / qcomp=0.70 / qpmin=0 / qpmax=69 / qpstep=4 / cplxblur=20.0 / qblur=0.5 / ip_ratio=1.40 / pb_ratio=1.30 / aq=2:0.90
  37. Язык : Korean
  38. Default : Да
  39. Forced : Нет
  40.  
  41. Аудио #1
  42. Идентификатор : 2
  43. Формат : AC-3
  44. Формат/Информация : Audio Coding 3
  45. Расширение режима : CM (complete main)
  46. Параметр Endianness формата : Big
  47. Идентификатор кодека : A_AC3
  48. Продолжительность : 1 ч. 43 м.
  49. Вид битрейта : Постоянный
  50. Битрейт : 448 Кбит/сек
  51. Каналы : 6 каналов
  52. Расположение каналов : Front: L C R, Side: L R, LFE
  53. Частота : 48,0 КГц
  54. Битовая глубина : 16 бит
  55. Метод сжатия : С потерями
  56. Размер потока : 332 Мбайт (7%)
  57. Заголовок : den904 (раннее)
  58. Язык : Russian
  59. Default : Да
  60. Forced : Да
  61.  
  62. Аудио #2
  63. Идентификатор : 3
  64. Формат : AC-3
  65. Формат/Информация : Audio Coding 3
  66. Расширение режима : CM (complete main)
  67. Параметр Endianness формата : Big
  68. Идентификатор кодека : A_AC3
  69. Продолжительность : 1 ч. 43 м.
  70. Вид битрейта : Постоянный
  71. Битрейт : 640 Кбит/сек
  72. Каналы : 6 каналов
  73. Расположение каналов : Front: L C R, Side: L R, LFE
  74. Частота : 48,0 КГц
  75. Битовая глубина : 16 бит
  76. Метод сжатия : С потерями
  77. Размер потока : 474 Мбайт (10%)
  78. Заголовок : Korean AC3 5.1 640Kbps
  79. Язык : Korean
  80. Default : Нет
  81. Forced : Нет
  82.  
  83. Текст #1
  84. Идентификатор : 4
  85. Формат : UTF-8
  86. Идентификатор кодека : S_TEXT/UTF8
  87. Идентификатор кодека/Информация : UTF-8 Plain Text
  88. Заголовок : Hiro
  89. Язык : Russian
  90. Default : Нет
  91. Forced : Нет
  92.  
  93. Текст #2
  94. Идентификатор : 5
  95. Формат : UTF-8
  96. Идентификатор кодека : S_TEXT/UTF8
  97. Идентификатор кодека/Информация : UTF-8 Plain Text
  98. Язык : English
  99. Default : Нет
  100. Forced : Нет
  101.  
  102. Меню
  103. 00:00:00.000 : ko:00:00:00.000
  104. 00:05:46.263 : ko:00:05:46.263
  105. 00:09:56.221 : ko:00:09:56.221
  106. 00:13:53.708 : ko:00:13:53.708
  107. 00:20:03.285 : ko:00:20:03.285
  108. 00:25:34.533 : ko:00:25:34.533
  109. 00:40:09.741 : ko:00:40:09.741
  110. 00:49:05.818 : ko:00:49:05.818
  111. 01:04:15.685 : ko:01:04:15.685
  112. 01:13:12.430 : ko:01:13:12.430
  113. 01:24:50.877 : ko:01:24:50.877
  114. 01:40:53.756 : ko:01:40:53.756
RAW Paste Data
We use cookies for various purposes including analytics. By continuing to use Pastebin, you agree to our use of cookies as described in the Cookies Policy. OK, I Understand
 
Top