Advertisement
yushiro

p.Los Rebeldes de Kansas (1959)[BDRip 108p].yus

Feb 27th, 2021
126
0
Never
Not a member of Pastebin yet? Sign Up, it unlocks many cool features!
text 6.42 KB | None | 0 0
  1. General
  2. Unique ID : 199015667375567941972221390852771534900 (0x95B905F84E0BE55861D49423D0C7D834)
  3. Complete name : G:\Los Rebeldes de Kansas (1959)[BDRip 108p].mkv
  4. Format : Matroska
  5. Format version : Version 4
  6. File size : 6.96 GiB
  7. Duration : 1 h 40 min
  8. Overall bit rate : 9 886 kb/s
  9. Encoded date : UTC 2021-02-25 12:23:03
  10. Writing application : mkvmerge v51.0.0 ('I Wish') 64-bit
  11. Writing library : libebml v1.4.0 + libmatroska v1.6.2
  12.  
  13. Video
  14. ID : 1
  15. Format : AVC
  16. Format/Info : Advanced Video Codec
  17. Format profile : High@L4.1
  18. Format settings : CABAC / 4 Ref Frames
  19. Format settings, CABAC : Yes
  20. Format settings, Reference : 4 frames
  21. Codec ID : V_MPEG4/ISO/AVC
  22. Duration : 1 h 40 min
  23. Bit rate : 8 542 kb/s
  24. Width : 1 920 pixels
  25. Height : 1 080 pixels
  26. Display aspect ratio : 16:9
  27. Frame rate mode : Constant
  28. Frame rate : 23.976 FPS
  29. Color space : YUV
  30. Chroma subsampling : 4:2:0
  31. Bit depth : 8 bits
  32. Scan type : Progressive
  33. Bits/(Pixel*Frame) : 0.172
  34. Stream size : 6.02 GiB (86%)
  35. Title : Los Rebeldes de Kansas (1959)[BDRip 1080p]
  36. Writing library : x264 core 122 r2184 5c85e0a
  37. Encoding settings : cabac=1 / ref=4 / deblock=1:0:0 / analyse=0x3:0x133 / me=umh / subme=7 / psy=1 / psy_rd=1.00:0.00 / mixed_ref=1 / me_range=16 / chroma_me=1 / trellis=1 / 8x8dct=1 / cqm=0 / deadzone=21,11 / fast_pskip=0 / chroma_qp_offset=-2 / threads=12 / sliced_threads=0 / nr=0 / decimate=1 / interlaced=0 / bluray_compat=0 / constrained_intra=0 / bframes=3 / b_pyramid=2 / b_adapt=1 / b_bias=0 / direct=1 / weightb=1 / open_gop=0 / weightp=2 / keyint=250 / keyint_min=23 / scenecut=40 / intra_refresh=0 / rc_lookahead=40 / rc=2pass / mbtree=1 / bitrate=8542 / ratetol=1.0 / qcomp=0.60 / qpmin=0 / qpmax=69 / qpstep=4 / cplxblur=20.0 / qblur=0.5 / ip_ratio=1.40 / aq=1:1.00
  38. Language : Spanish
  39. Default : Yes
  40. Forced : No
  41.  
  42. Audio #1
  43. ID : 2
  44. Format : AC-3
  45. Format/Info : Audio Coding 3
  46. Commercial name : Dolby Digital
  47. Codec ID : A_AC3
  48. Duration : 1 h 40 min
  49. Bit rate mode : Constant
  50. Bit rate : 448 kb/s
  51. Channel(s) : 2 channels
  52. Channel layout : L R
  53. Sampling rate : 48.0 kHz
  54. Frame rate : 31.250 FPS (1536 SPF)
  55. Compression mode : Lossy
  56. Stream size : 322 MiB (5%)
  57. Title : Castellano AC3 Stéreo
  58. Language : Spanish
  59. Service kind : Complete Main
  60. Default : Yes
  61. Forced : No
  62.  
  63. Audio #2
  64. ID : 3
  65. Format : AC-3
  66. Format/Info : Audio Coding 3
  67. Commercial name : Dolby Digital
  68. Codec ID : A_AC3
  69. Duration : 1 h 40 min
  70. Bit rate mode : Constant
  71. Bit rate : 448 kb/s
  72. Channel(s) : 2 channels
  73. Channel layout : L R
  74. Sampling rate : 48.0 kHz
  75. Frame rate : 31.250 FPS (1536 SPF)
  76. Compression mode : Lossy
  77. Stream size : 323 MiB (5%)
  78. Title : Inglés AC3 Stéreo
  79. Language : English
  80. Service kind : Complete Main
  81. Default : No
  82. Forced : No
  83.  
  84. Audio #3
  85. ID : 4
  86. Format : AC-3
  87. Format/Info : Audio Coding 3
  88. Commercial name : Dolby Digital
  89. Codec ID : A_AC3
  90. Duration : 1 h 40 min
  91. Bit rate mode : Constant
  92. Bit rate : 448 kb/s
  93. Channel(s) : 2 channels
  94. Channel layout : L R
  95. Sampling rate : 48.0 kHz
  96. Frame rate : 31.250 FPS (1536 SPF)
  97. Compression mode : Lossy
  98. Stream size : 323 MiB (5%)
  99. Title : Francés AC3 Stéreo
  100. Language : French
  101. Service kind : Complete Main
  102. Default : No
  103. Forced : No
  104.  
  105. Text #1
  106. ID : 5
  107. Format : UTF-8
  108. Codec ID : S_TEXT/UTF8
  109. Codec ID/Info : UTF-8 Plain Text
  110. Duration : 1 h 38 min
  111. Bit rate : 57 b/s
  112. Count of elements : 1063
  113. Stream size : 41.9 KiB (0%)
  114. Title : Castellano
  115. Language : Spanish
  116. Default : Yes
  117. Forced : No
  118.  
  119. Text #2
  120. ID : 6
  121. Format : UTF-8
  122. Codec ID : S_TEXT/UTF8
  123. Codec ID/Info : UTF-8 Plain Text
  124. Duration : 1 h 38 min
  125. Bit rate : 54 b/s
  126. Count of elements : 1063
  127. Stream size : 39.7 KiB (0%)
  128. Title : Inglés
  129. Language : English
  130. Default : No
  131. Forced : No
  132.  
  133. Text #3
  134. ID : 7
  135. Format : UTF-8
  136. Codec ID : S_TEXT/UTF8
  137. Codec ID/Info : UTF-8 Plain Text
  138. Duration : 1 h 35 min
  139. Bit rate : 51 b/s
  140. Count of elements : 1146
  141. Stream size : 35.9 KiB (0%)
  142. Title : Francés
  143. Language : French
  144. Default : No
  145. Forced : No
  146.  
  147. Menu
  148. 00:00:00.000 : en:00:00:00.000
  149. 00:17:11.364 : en:00:17:11.364
  150. 00:26:54.530 : en:00:26:54.530
  151. 00:37:16.734 : en:00:37:16.734
  152. 00:51:30.879 : en:00:51:30.879
  153. 01:08:10.336 : en:01:08:10.336
  154. 01:16:07.646 : en:01:16:07.646
  155. 01:26:36.316 : en:01:26:36.316
  156.  
  157.  
Advertisement
Add Comment
Please, Sign In to add comment
Advertisement