Interfilm

Untitled

Nov 9th, 2014
196
Never
Not a member of Pastebin yet? Sign Up, it unlocks many cool features!
  1. General
  2. alo.Alto.2013.Blu.Ray.1080p.CINEMANIA.mkv
  3. Format : Matroska
  4. Format version : Version 4 / Version 2
  5. File size : 10.3 GiB
  6. Duration : 1h 39mn
  7. Overall bit rate : 14.7 Mbps
  8. Movie name : Release Group CINEMANIA
  9. Encoded date : UTC 2014-11-06 15:44:31
  10. Writing application : mkvmerge v7.3.0 ('Nouages') 64bit built on Oct 22 2014 18:53:34
  11. Writing library : libebml v1.3.0 + libmatroska v1.4.1
  12.  
  13. Video
  14. ID : 1
  15. Format : AVC
  16. Format/Info : Advanced Video Codec
  17. Format profile : High@L4.1
  18. Format settings, CABAC : Yes
  19. Format settings, ReFrames : 4 frames
  20. Codec ID : V_MPEG4/ISO/AVC
  21. Duration : 1h 39mn
  22. Bit rate : 13.5 Mbps
  23. Width : 1 920 pixels
  24. Height : 1 036 pixels
  25. Display aspect ratio : 1.85:1
  26. Frame rate mode : Constant
  27. Frame rate : 23.976 fps
  28. Color space : YUV
  29. Chroma subsampling : 4:2:0
  30. Bit depth : 8 bits
  31. Scan type : Progressive
  32. Bits/(Pixel*Frame) : 0.284
  33. Stream size : 9.46 GiB (92%)
  34. Title : Release Group CINEMANIA
  35. Writing library : x264 core 142 r2431+42 c69a006 tMod [8-bit@4:2:0 X86_64]
  36. Encoding settings : cabac=1 / ref=4 / deblock=1:-3:-3 / analyse=0x3:0x133 / me=umh / subme=10 / psy=1 / fade_compensate=0.00 / psy_rd=1.00:0.00 / mixed_ref=1 / me_range=24 / chroma_me=1 / trellis=2 / 8x8dct=1 / cqm=0 / deadzone=21,11 / fast_pskip=1 / chroma_qp_offset=-2 / threads=12 / lookahead_threads=2 / sliced_threads=0 / nr=0 / decimate=1 / interlaced=0 / bluray_compat=0 / constrained_intra=0 / fgo=0 / bframes=9 / b_pyramid=2 / b_adapt=2 / b_bias=0 / direct=3 / weightb=1 / open_gop=0 / weightp=2 / keyint=250 / keyint_min=23 / scenecut=40 / intra_refresh=0 / rc=crf / mbtree=0 / crf=18.0000 / qcomp=0.65 / qpmin=0:0:0 / qpmax=69:69:69 / qpstep=4 / ip_ratio=1.30 / pb_ratio=1.20 / aq=4:0.85 / aq-sensitivity=10.00 / aq-factor=1.00:1.00:1.00 / aq2=0 / aq3=0
  37. Language : English
  38. Default : Yes
  39. Forced : No
  40. Matrix coefficients : BT.709
  41.  
  42. Audio #1
  43. ID : 2
  44. Format : AC-3
  45. Format/Info : Audio Coding 3
  46. Mode extension : CM (complete main)
  47. Format settings, Endianness : Big
  48. Codec ID : A_AC3
  49. Duration : 1h 39mn
  50. Bit rate mode : Constant
  51. Bit rate : 256 Kbps
  52. Channel(s) : 2 channels
  53. Channel positions : Front: L R
  54. Sampling rate : 48.0 KHz
  55. Bit depth : 16 bits
  56. Compression mode : Lossy
  57. Stream size : 183 MiB (2%)
  58. Title : Антошка Агапов
  59. Language : Russian
  60. Default : Yes
  61. Forced : Yes
  62.  
  63. Audio #2
  64. ID : 3
  65. Format : AC-3
  66. Format/Info : Audio Coding 3
  67. Mode extension : CM (complete main)
  68. Format settings, Endianness : Big
  69. Codec ID : A_AC3
  70. Duration : 1h 39mn
  71. Bit rate mode : Constant
  72. Bit rate : 640 Kbps
  73. Channel(s) : 6 channels
  74. Channel positions : Front: L C R, Side: L R, LFE
  75. Sampling rate : 48.0 KHz
  76. Bit depth : 16 bits
  77. Compression mode : Lossy
  78. Stream size : 458 MiB (4%)
  79. Language : English
  80. Default : No
  81. Forced : No
  82.  
  83. Text #2
  84. ID : 5
  85. Format : UTF-8
  86. Codec ID : S_TEXT/UTF8
  87. Codec ID/Info : UTF-8 Plain Text
  88. Title : Dr.pro
  89. Language : Russian
  90. Default : No
  91. Forced : No
  92.  
  93. Text #3
  94. ID : 6
  95. Format : UTF-8
  96. Codec ID : S_TEXT/UTF8
  97. Codec ID/Info : UTF-8 Plain Text
  98. Language : English
  99. Default : No
  100. Forced : No
  101.  
  102. Text #4
  103. ID : 7
  104. Format : UTF-8
  105. Codec ID : S_TEXT/UTF8
  106. Codec ID/Info : UTF-8 Plain Text
  107. Language : English
  108. Default : No
  109. Forced : No
  110.  
  111. Menu
  112. 00:00:00.000 : en:00:00:00.000
  113. 00:05:47.305 : en:00:05:47.305
  114. 00:08:25.130 : en:00:08:25.130
  115. 00:19:04.477 : en:00:19:04.477
  116. 00:22:10.454 : en:00:22:10.454
  117. 00:27:39.491 : en:00:27:39.491
  118. 00:30:11.727 : en:00:30:11.727
  119. 00:35:39.054 : en:00:35:39.054
  120. 00:43:53.548 : en:00:43:53.548
  121. 00:54:12.916 : en:00:54:12.916
  122. 01:04:04.674 : en:01:04:04.674
  123. 01:11:45.218 : en:01:11:45.218
  124. 01:15:53.090 : en:01:15:53.090
  125. 01:21:45.692 : en:01:21:45.692
  126. 01:29:50.552 : en:01:29:50.552
  127. 01:33:57.757 : en:01:33:57.757
RAW Paste Data