SHARE
TWEET

Footloose.1984.1080p.BluRay.REMUX.AVC.DTS-HD.MA.5.1-EPSiLON

a guest Jun 16th, 2019 88 Never
Not a member of Pastebin yet? Sign Up, it unlocks many cool features!
  1. General
  2. Unique ID                                : 199020675752757230336674747598674823242 (0x95B9FCE6E98B3A60D7AEDB64C00F884A)
  3. Complete name                            : Footloose.1984.1080p.BluRay.REMUX.AVC.DTS-HD.MA.5.1-EPSiLON.mkv
  4. Format                                   : Matroska
  5. Format version                           : Version 4
  6. File size                                : 30.9 GiB
  7. Duration                                 : 1 h 47 min
  8. Overall bit rate mode                    : Variable
  9. Overall bit rate                         : 41.3 Mb/s
  10. Encoded date                             : UTC 2017-08-29 06:16:24
  11. Writing application                      : mkvmerge v15.0.0 ('Duel with the Devil') 64-bit
  12. Writing library                          : libebml v1.3.5 + libmatroska v1.4.5
  13.  
  14. Video
  15. ID                                       : 1
  16. Format                                   : AVC
  17. Format/Info                              : Advanced Video Codec
  18. Format profile                           : High@L4.1
  19. Format settings                          : CABAC / 4 Ref Frames
  20. Format settings, CABAC                   : Yes
  21. Format settings, Reference frames        : 4 frames
  22. Codec ID                                 : V_MPEG4/ISO/AVC
  23. Duration                                 : 1 h 47 min
  24. Bit rate mode                            : Variable
  25. Bit rate                                 : 35.8 Mb/s
  26. Maximum bit rate                         : 38.0 Mb/s
  27. Width                                    : 1 920 pixels
  28. Height                                   : 1 080 pixels
  29. Display aspect ratio                     : 16:9
  30. Frame rate mode                          : Constant
  31. Frame rate                               : 23.976 (24000/1001) FPS
  32. Color space                              : YUV
  33. Chroma subsampling                       : 4:2:0
  34. Bit depth                                : 8 bits
  35. Scan type                                : Progressive
  36. Bits/(Pixel*Frame)                       : 0.721
  37. Stream size                              : 26.8 GiB (87%)
  38. Title                                    : MPEG-4 AVC Video / 35994 kbps / 1080p / 23.976 fps / 16:9 / High Profile 4.1
  39. Language                                 : English
  40. Default                                  : Yes
  41. Forced                                   : No
  42.  
  43. Audio #1
  44. ID                                       : 2
  45. Format                                   : DTS ES XLL
  46. Format/Info                              : Digital Theater Systems
  47. Commercial name                          : DTS-HD Master Audio
  48. Codec ID                                 : A_DTS
  49. Duration                                 : 1 h 47 min
  50. Bit rate mode                            : Variable
  51. Bit rate                                 : 3 745 kb/s
  52. Channel(s)                               : 6 channels
  53. Channel(s)_Original                      : 7 channels
  54. Channel layout                           : C L R Ls Rs LFE Cb
  55. Sampling rate                            : 48.0 kHz
  56. Frame rate                               : 93.750 FPS (512 SPF)
  57. Bit depth                                : 24 bits
  58. Compression mode                         : Lossless
  59. Stream size                              : 2.80 GiB (9%)
  60. Title                                    : DTS-HD Master Audio / 5.1-ES / 48 kHz / 3745 kbps / 24-bit
  61. Language                                 : English
  62. Default                                  : Yes
  63. Forced                                   : No
  64.  
  65. Audio #2
  66. ID                                       : 3
  67. Format                                   : AC-3
  68. Format/Info                              : Audio Coding 3
  69. Commercial name                          : Dolby Digital
  70. Codec ID                                 : A_AC3
  71. Duration                                 : 1 h 47 min
  72. Bit rate mode                            : Constant
  73. Bit rate                                 : 224 kb/s
  74. Channel(s)                               : 2 channels
  75. Channel layout                           : L R
  76. Sampling rate                            : 48.0 kHz
  77. Frame rate                               : 31.250 FPS (1536 SPF)
  78. Bit depth                                : 16 bits
  79. Compression mode                         : Lossy
  80. Stream size                              : 172 MiB (1%)
  81. Title                                    : Commentary by actor Kevin Bacon
  82. Language                                 : English
  83. Service kind                             : Complete Main
  84. Default                                  : No
  85. Forced                                   : No
  86.  
  87. Audio #3
  88. ID                                       : 4
  89. Format                                   : AC-3
  90. Format/Info                              : Audio Coding 3
  91. Commercial name                          : Dolby Digital
  92. Codec ID                                 : A_AC3
  93. Duration                                 : 1 h 47 min
  94. Bit rate mode                            : Constant
  95. Bit rate                                 : 224 kb/s
  96. Channel(s)                               : 2 channels
  97. Channel layout                           : L R
  98. Sampling rate                            : 48.0 kHz
  99. Frame rate                               : 31.250 FPS (1536 SPF)
  100. Bit depth                                : 16 bits
  101. Compression mode                         : Lossy
  102. Stream size                              : 172 MiB (1%)
  103. Title                                    : Commentary by producer Craig Zadan and writer Dean Pitchford
  104. Language                                 : English
  105. Service kind                             : Complete Main
  106. Default                                  : No
  107. Forced                                   : No
  108.  
  109. Text #1
  110. ID                                       : 5
  111. Format                                   : PGS
  112. Codec ID                                 : S_HDMV/PGS
  113. Codec ID/Info                            : Picture based subtitle format used on BDs/HD-DVDs
  114. Duration                                 : 1 h 44 min
  115. Bit rate                                 : 47.4 kb/s
  116. Count of elements                        : 2546
  117. Stream size                              : 35.4 MiB (0%)
  118. Language                                 : English
  119. Default                                  : No
  120. Forced                                   : No
  121.  
  122. Text #2
  123. ID                                       : 6
  124. Format                                   : PGS
  125. Codec ID                                 : S_HDMV/PGS
  126. Codec ID/Info                            : Picture based subtitle format used on BDs/HD-DVDs
  127. Duration                                 : 1 h 46 min
  128. Bit rate                                 : 62.6 kb/s
  129. Count of elements                        : 3490
  130. Stream size                              : 47.9 MiB (0%)
  131. Title                                    : SDH
  132. Language                                 : English
  133. Default                                  : No
  134. Forced                                   : No
  135.  
  136. Text #3
  137. ID                                       : 7
  138. Format                                   : PGS
  139. Codec ID                                 : S_HDMV/PGS
  140. Codec ID/Info                            : Picture based subtitle format used on BDs/HD-DVDs
  141. Duration                                 : 1 h 44 min
  142. Bit rate                                 : 33.5 kb/s
  143. Count of elements                        : 2340
  144. Stream size                              : 25.0 MiB (0%)
  145. Language                                 : Danish
  146. Default                                  : No
  147. Forced                                   : No
  148.  
  149. Text #4
  150. ID                                       : 8
  151. Format                                   : PGS
  152. Codec ID                                 : S_HDMV/PGS
  153. Codec ID/Info                            : Picture based subtitle format used on BDs/HD-DVDs
  154. Duration                                 : 1 h 44 min
  155. Bit rate                                 : 32.6 kb/s
  156. Count of elements                        : 2010
  157. Stream size                              : 24.4 MiB (0%)
  158. Language                                 : Dutch
  159. Default                                  : No
  160. Forced                                   : No
  161.  
  162. Text #5
  163. ID                                       : 9
  164. Format                                   : PGS
  165. Codec ID                                 : S_HDMV/PGS
  166. Codec ID/Info                            : Picture based subtitle format used on BDs/HD-DVDs
  167. Duration                                 : 1 h 44 min
  168. Bit rate                                 : 38.5 kb/s
  169. Count of elements                        : 1890
  170. Stream size                              : 28.8 MiB (0%)
  171. Language                                 : Finnish
  172. Default                                  : No
  173. Forced                                   : No
  174.  
  175. Text #6
  176. ID                                       : 10
  177. Format                                   : PGS
  178. Codec ID                                 : S_HDMV/PGS
  179. Codec ID/Info                            : Picture based subtitle format used on BDs/HD-DVDs
  180. Duration                                 : 1 h 44 min
  181. Bit rate                                 : 46.0 kb/s
  182. Count of elements                        : 2480
  183. Stream size                              : 34.4 MiB (0%)
  184. Language                                 : French
  185. Default                                  : No
  186. Forced                                   : No
  187.  
  188. Text #7
  189. ID                                       : 11
  190. Format                                   : PGS
  191. Codec ID                                 : S_HDMV/PGS
  192. Codec ID/Info                            : Picture based subtitle format used on BDs/HD-DVDs
  193. Duration                                 : 1 h 44 min
  194. Bit rate                                 : 41.3 kb/s
  195. Count of elements                        : 2412
  196. Stream size                              : 30.9 MiB (0%)
  197. Language                                 : German
  198. Default                                  : No
  199. Forced                                   : No
  200.  
  201. Text #8
  202. ID                                       : 12
  203. Format                                   : PGS
  204. Codec ID                                 : S_HDMV/PGS
  205. Codec ID/Info                            : Picture based subtitle format used on BDs/HD-DVDs
  206. Duration                                 : 1 h 44 min
  207. Bit rate                                 : 40.7 kb/s
  208. Count of elements                        : 2276
  209. Stream size                              : 30.4 MiB (0%)
  210. Language                                 : Italian
  211. Default                                  : No
  212. Forced                                   : No
  213.  
  214. Text #9
  215. ID                                       : 13
  216. Format                                   : PGS
  217. Codec ID                                 : S_HDMV/PGS
  218. Codec ID/Info                            : Picture based subtitle format used on BDs/HD-DVDs
  219. Duration                                 : 1 h 45 min
  220. Bit rate                                 : 22.3 kb/s
  221. Count of elements                        : 2164
  222. Stream size                              : 16.8 MiB (0%)
  223. Language                                 : Japanese
  224. Default                                  : No
  225. Forced                                   : No
  226.  
  227. Text #10
  228. ID                                       : 14
  229. Format                                   : PGS
  230. Codec ID                                 : S_HDMV/PGS
  231. Codec ID/Info                            : Picture based subtitle format used on BDs/HD-DVDs
  232. Duration                                 : 1 h 44 min
  233. Bit rate                                 : 34.6 kb/s
  234. Count of elements                        : 1924
  235. Stream size                              : 25.9 MiB (0%)
  236. Language                                 : Norwegian
  237. Default                                  : No
  238. Forced                                   : No
  239.  
  240. Text #11
  241. ID                                       : 15
  242. Format                                   : PGS
  243. Codec ID                                 : S_HDMV/PGS
  244. Codec ID/Info                            : Picture based subtitle format used on BDs/HD-DVDs
  245. Duration                                 : 1 h 44 min
  246. Bit rate                                 : 41.9 kb/s
  247. Count of elements                        : 2416
  248. Stream size                              : 31.3 MiB (0%)
  249. Language                                 : Spanish
  250. Default                                  : No
  251. Forced                                   : No
  252.  
  253. Text #12
  254. ID                                       : 16
  255. Format                                   : PGS
  256. Codec ID                                 : S_HDMV/PGS
  257. Codec ID/Info                            : Picture based subtitle format used on BDs/HD-DVDs
  258. Duration                                 : 1 h 44 min
  259. Bit rate                                 : 32.2 kb/s
  260. Count of elements                        : 2066
  261. Stream size                              : 24.1 MiB (0%)
  262. Language                                 : Swedish
  263. Default                                  : No
  264. Forced                                   : No
  265.  
  266. Text #13
  267. ID                                       : 17
  268. Format                                   : PGS
  269. Codec ID                                 : S_HDMV/PGS
  270. Codec ID/Info                            : Picture based subtitle format used on BDs/HD-DVDs
  271. Duration                                 : 1 h 46 min
  272. Bit rate                                 : 54.5 kb/s
  273. Count of elements                        : 2126
  274. Stream size                              : 41.7 MiB (0%)
  275. Title                                    : Commentary by actor Kevin Bacon
  276. Language                                 : English
  277. Default                                  : No
  278. Forced                                   : No
  279.  
  280. Text #14
  281. ID                                       : 18
  282. Format                                   : PGS
  283. Codec ID                                 : S_HDMV/PGS
  284. Codec ID/Info                            : Picture based subtitle format used on BDs/HD-DVDs
  285. Duration                                 : 1 h 46 min
  286. Bit rate                                 : 48.8 kb/s
  287. Count of elements                        : 2068
  288. Stream size                              : 37.3 MiB (0%)
  289. Title                                    : Commentary by actor Kevin Bacon
  290. Language                                 : French
  291. Default                                  : No
  292. Forced                                   : No
  293.  
  294. Text #15
  295. ID                                       : 19
  296. Format                                   : PGS
  297. Codec ID                                 : S_HDMV/PGS
  298. Codec ID/Info                            : Picture based subtitle format used on BDs/HD-DVDs
  299. Duration                                 : 1 h 46 min
  300. Bit rate                                 : 53.4 kb/s
  301. Count of elements                        : 2066
  302. Stream size                              : 40.8 MiB (0%)
  303. Title                                    : Commentary by actor Kevin Bacon
  304. Language                                 : German
  305. Default                                  : No
  306. Forced                                   : No
  307.  
  308. Text #16
  309. ID                                       : 20
  310. Format                                   : PGS
  311. Codec ID                                 : S_HDMV/PGS
  312. Codec ID/Info                            : Picture based subtitle format used on BDs/HD-DVDs
  313. Duration                                 : 1 h 46 min
  314. Bit rate                                 : 44.2 kb/s
  315. Count of elements                        : 2122
  316. Stream size                              : 33.8 MiB (0%)
  317. Title                                    : Commentary by actor Kevin Bacon
  318. Language                                 : Italian
  319. Default                                  : No
  320. Forced                                   : No
  321.  
  322. Text #17
  323. ID                                       : 21
  324. Format                                   : PGS
  325. Codec ID                                 : S_HDMV/PGS
  326. Codec ID/Info                            : Picture based subtitle format used on BDs/HD-DVDs
  327. Duration                                 : 1 h 44 min
  328. Bit rate                                 : 30.5 kb/s
  329. Count of elements                        : 1858
  330. Stream size                              : 22.9 MiB (0%)
  331. Title                                    : Commentary by actor Kevin Bacon
  332. Language                                 : Japanese
  333. Default                                  : No
  334. Forced                                   : No
  335.  
  336. Text #18
  337. ID                                       : 22
  338. Format                                   : PGS
  339. Codec ID                                 : S_HDMV/PGS
  340. Codec ID/Info                            : Picture based subtitle format used on BDs/HD-DVDs
  341. Duration                                 : 1 h 46 min
  342. Bit rate                                 : 46.3 kb/s
  343. Count of elements                        : 2124
  344. Stream size                              : 35.4 MiB (0%)
  345. Title                                    : Commentary by actor Kevin Bacon
  346. Language                                 : Spanish
  347. Default                                  : No
  348. Forced                                   : No
  349.  
  350. Text #19
  351. ID                                       : 23
  352. Format                                   : PGS
  353. Codec ID                                 : S_HDMV/PGS
  354. Codec ID/Info                            : Picture based subtitle format used on BDs/HD-DVDs
  355. Duration                                 : 1 h 46 min
  356. Bit rate                                 : 96.1 kb/s
  357. Count of elements                        : 3518
  358. Stream size                              : 73.4 MiB (0%)
  359. Title                                    : Commentary by producer Craig Zadan and writer Dean Pitchford
  360. Language                                 : English
  361. Default                                  : No
  362. Forced                                   : No
  363.  
  364. Text #20
  365. ID                                       : 24
  366. Format                                   : PGS
  367. Codec ID                                 : S_HDMV/PGS
  368. Codec ID/Info                            : Picture based subtitle format used on BDs/HD-DVDs
  369. Duration                                 : 1 h 46 min
  370. Bit rate                                 : 86.2 kb/s
  371. Count of elements                        : 3518
  372. Stream size                              : 65.8 MiB (0%)
  373. Title                                    : Commentary by producer Craig Zadan and writer Dean Pitchford
  374. Language                                 : French
  375. Default                                  : No
  376. Forced                                   : No
  377.  
  378. Text #21
  379. ID                                       : 25
  380. Format                                   : PGS
  381. Codec ID                                 : S_HDMV/PGS
  382. Codec ID/Info                            : Picture based subtitle format used on BDs/HD-DVDs
  383. Duration                                 : 1 h 46 min
  384. Bit rate                                 : 92.8 kb/s
  385. Count of elements                        : 3512
  386. Stream size                              : 70.9 MiB (0%)
  387. Title                                    : Commentary by producer Craig Zadan and writer Dean Pitchford
  388. Language                                 : German
  389. Default                                  : No
  390. Forced                                   : No
  391.  
  392. Text #22
  393. ID                                       : 26
  394. Format                                   : PGS
  395. Codec ID                                 : S_HDMV/PGS
  396. Codec ID/Info                            : Picture based subtitle format used on BDs/HD-DVDs
  397. Duration                                 : 1 h 46 min
  398. Bit rate                                 : 88.5 kb/s
  399. Count of elements                        : 3516
  400. Stream size                              : 67.5 MiB (0%)
  401. Title                                    : Commentary by producer Craig Zadan and writer Dean Pitchford
  402. Language                                 : Italian
  403. Default                                  : No
  404. Forced                                   : No
  405.  
  406. Text #23
  407. ID                                       : 27
  408. Format                                   : PGS
  409. Codec ID                                 : S_HDMV/PGS
  410. Codec ID/Info                            : Picture based subtitle format used on BDs/HD-DVDs
  411. Duration                                 : 1 h 46 min
  412. Bit rate                                 : 49.1 kb/s
  413. Count of elements                        : 3004
  414. Stream size                              : 37.4 MiB (0%)
  415. Title                                    : Commentary by producer Craig Zadan and writer Dean Pitchford
  416. Language                                 : Japanese
  417. Default                                  : No
  418. Forced                                   : No
  419.  
  420. Text #24
  421. ID                                       : 28
  422. Format                                   : PGS
  423. Codec ID                                 : S_HDMV/PGS
  424. Codec ID/Info                            : Picture based subtitle format used on BDs/HD-DVDs
  425. Duration                                 : 1 h 46 min
  426. Bit rate                                 : 84.8 kb/s
  427. Count of elements                        : 3516
  428. Stream size                              : 64.8 MiB (0%)
  429. Title                                    : Commentary by producer Craig Zadan and writer Dean Pitchford
  430. Language                                 : Spanish
  431. Default                                  : No
  432. Forced                                   : No
  433.  
  434. Menu
  435. 00:00:00.000                             : en:Opening Credits
  436. 00:02:35.196                             : en:Welcome to Bomont
  437. 00:13:29.433                             : en:No Dancing Around
  438. 00:22:46.239                             : en:The Dare
  439. 00:32:31.991                             : en:Set Up
  440. 00:44:11.774                             : en:Over the Line
  441. 00:58:49.692                             : en:Dance Lessons
  442. 01:10:56.001                             : en:The Town Council
  443. 01:22:04.461                             : en:Change of Heart
  444. 01:28:11.577                             : en:Getting Ready
  445. 01:32:56.612                             : en:Senior Prom
  446. 01:39:44.895                             : en:Footloose
  447. 01:43:46.720                             : en:End Credits
RAW Paste Data
We use cookies for various purposes including analytics. By continuing to use Pastebin, you agree to our use of cookies as described in the Cookies Policy. OK, I Understand
 
Top