SHARE
TWEET

Untitled

Shaon181 Mar 23rd, 2019 86 Never
Not a member of Pastebin yet? Sign Up, it unlocks many cool features!
  1. General
  2. Unique ID                   : 221342573508539371549038363541159513616 (0xA685076E6E292742B32F572331778E10)
  3. Complete name               : K:\Anime\10\Isekai Maou to Shoukan Shoujo no Dorei Majutsu\New folder\Isekai.Maou.to.Shoukan.Shoujo.no.Dorei.Majutsu.S01E01.Dual-Audio.1080p.BluRay.x265.AAC.2.0-E.N.D.mkv
  4. Format                      : Matroska
  5. Format version              : Version 4 / Version 2
  6. File size                   : 420 MiB
  7. Duration                    : 23 min 42 s
  8. Overall bit rate            : 2 478 kb/s
  9. Movie name                  : E.N.D
  10. Encoded date                : UTC 2019-03-24 01:49:40
  11. Writing application         : mkvmerge v11.0.0 ('Alive') 64bit
  12. Writing library             : libebml v1.3.4 + libmatroska v1.4.5 / Lavf58.20.100
  13. Attachments                 : A-OTF-RyuminPro-Bold.otf / BERKSHIRESWASH-REGULAR.TTF / calibri.ttf / CronosPro-Bold.otf / CronosPro-BoldIt.otf / DroidSans.ttf / HEART shapes.ttf / Latienne_Becker_Med.ttf / T3.ttf / AB Nirvana ESP.ttf / AbelBecker Bold.ttf
  14.  
  15. Video
  16. ID                          : 1
  17. Format                      : HEVC
  18. Format/Info                 : High Efficiency Video Coding
  19. Format profile              : Main@L4@Main
  20. Codec ID                    : V_MPEGH/ISO/HEVC
  21. Duration                    : 23 min 42 s
  22. Bit rate                    : 2 001 kb/s
  23. Width                       : 1 920 pixels
  24. Height                      : 1 080 pixels
  25. Display aspect ratio        : 16:9
  26. Frame rate mode             : Constant
  27. Frame rate                  : 23.976 (24000/1001) FPS
  28. Color space                 : YUV
  29. Chroma subsampling          : 4:2:0
  30. Bit depth                   : 8 bits
  31. Bits/(Pixel*Frame)          : 0.040
  32. Stream size                 : 339 MiB (81%)
  33. Writing library             : x265 2.9:[Windows][GCC 7.1.0][64 bit] 8bit+10bit+12bit
  34. Encoding settings           : cpuid=1111039 / frame-threads=2 / numa-pools=4 / wpp / no-pmode / no-pme / no-psnr / no-ssim / log-level=2 / input-csp=1 / input-res=1920x1080 / interlace=0 / total-frames=0 / level-idc=0 / high-tier=1 / uhd-bd=0 / ref=4 / no-allow-non-conformance / no-repeat-headers / annexb / no-aud / no-hrd / info / hash=0 / no-temporal-layers / open-gop / min-keyint=24 / keyint=240 / gop-lookahead=0 / bframes=4 / b-adapt=2 / b-pyramid / bframe-bias=0 / rc-lookahead=25 / lookahead-slices=4 / scenecut=40 / radl=0 / no-intra-refresh / ctu=64 / min-cu-size=8 / no-rect / no-amp / max-tu-size=32 / tu-inter-depth=1 / tu-intra-depth=1 / limit-tu=0 / rdoq-level=2 / dynamic-rd=0.00 / no-ssim-rd / signhide / no-tskip / nr-intra=0 / nr-inter=0 / no-constrained-intra / no-strong-intra-smoothing / max-merge=3 / limit-refs=3 / limit-modes / me=3 / subme=3 / merange=57 / temporal-mvp / weightp / no-weightb / no-analyze-src-pics / deblock=0:0 / sao / no-sao-non-deblock / rd=4 / no-early-skip / rskip / no-fast-intra / no-tskip-fast / no-cu-lossless / no-b-intra / no-splitrd-skip / rdpenalty=0 / psy-rd=2.00 / psy-rdoq=1.00 / no-rd-refine / no-lossless / cbqpoffs=0 / crqpoffs=0 / rc=abr / bitrate=2000 / qcomp=0.60 / qpstep=4 / stats-write=0 / stats-read=2 / cplxblur=20.0 / qblur=0.5 / ipratio=1.40 / pbratio=1.30 / aq-mode=1 / aq-strength=1.00 / cutree / zone-count=0 / no-strict-cbr / qg-size=32 / no-rc-grain / qpmax=69 / qpmin=0 / no-const-vbv / sar=1 / overscan=0 / videoformat=5 / range=0 / colorprim=1 / transfer=1 / colormatrix=1 / chromaloc=0 / display-window=0 / max-cll=0,0 / min-luma=0 / max-luma=255 / log2-max-poc-lsb=8 / vui-timing-info / vui-hrd-info / slices=1 / no-opt-qp-pps / no-opt-ref-list-length-pps / no-multi-pass-opt-rps / scenecut-bias=0.05 / no-opt-cu-delta-qp / no-aq-motion / no-hdr / no-hdr-opt / no-dhdr10-opt / no-idr-recovery-sei / analysis-reuse-level=5 / scale-factor=0 / refine-intra=0 / refine-inter=0 / refine-mv=0 / no-limit-sao / ctu-info=0 / no-lowpass-dct / refine-mv-type=0 / copy-pic=1 / max-ausize-factor=1.0 / no-dynamic-refine / no-single-sei
  35. Default                     : Yes
  36. Forced                      : No
  37. Color range                 : Limited
  38. Color primaries             : BT.709
  39. Transfer characteristics    : BT.709
  40. Matrix coefficients         : BT.709
  41.  
  42. Audio #1
  43. ID                          : 3
  44. Format                      : AAC
  45. Format/Info                 : Advanced Audio Codec
  46. Format profile              : LC
  47. Codec ID                    : A_AAC-2
  48. Duration                    : 23 min 42 s
  49. Bit rate                    : 192 kb/s
  50. Channel(s)                  : 2 channels
  51. Channel positions           : Front: L R
  52. Sampling rate               : 48.0 kHz
  53. Frame rate                  : 46.875 FPS (1024 SPF)
  54. Compression mode            : Lossy
  55. Delay relative to video     : 9 ms
  56. Stream size                 : 32.5 MiB (8%)
  57. Language                    : Japanese
  58. Default                     : Yes
  59. Forced                      : No
  60.  
  61. Audio #2
  62. ID                          : 4
  63. Format                      : AAC
  64. Format/Info                 : Advanced Audio Codec
  65. Format profile              : LC
  66. Codec ID                    : A_AAC-2
  67. Duration                    : 23 min 42 s
  68. Bit rate                    : 192 kb/s
  69. Channel(s)                  : 2 channels
  70. Channel positions           : Front: L R
  71. Sampling rate               : 44.1 kHz
  72. Frame rate                  : 43.066 FPS (1024 SPF)
  73. Compression mode            : Lossy
  74. Stream size                 : 33.2 MiB (8%)
  75. Title                       : Funimation (Web)
  76. Language                    : English
  77. Default                     : No
  78. Forced                      : No
  79.  
  80. Text
  81. ID                          : 2
  82. Format                      : ASS
  83. Codec ID                    : S_TEXT/ASS
  84. Codec ID/Info               : Advanced Sub Station Alpha
  85. Duration                    : 23 min 37 s
  86. Bit rate                    : 35.8 kb/s
  87. Count of elements           : 21667
  88. Compression mode            : Lossless
  89. Stream size                 : 6.06 MiB (1%)
  90. Language                    : English
  91. Default                     : Yes
  92. Forced                      : No
  93.  
  94. Menu #1
  95. 00:00:00.000                : :Intro
  96. 00:01:27.004                : :OP
  97. 00:02:57.052                : :Part A
  98. 00:10:00.016                : :Part B
  99. 00:22:13.958                : :ED
  100. 00:23:30.034                : :Next Episode
  101. 00:23:40.169                : :AT-X End Stinger
  102.  
  103. Menu #2
  104. 00:00:00.054                : en:Chapter 01
RAW Paste Data
We use cookies for various purposes including analytics. By continuing to use Pastebin, you agree to our use of cookies as described in the Cookies Policy. OK, I Understand
 
Top