SHARE
TWEET

Teen Taitans Encoded

mhimranhossain97 Dec 4th, 2019 83 Never
Not a member of Pastebin yet? Sign Up, it unlocks many cool features!
  1. General
  2. Unique ID                                : 301403592925660388888303466752235749199 (0xE2C038726F6B28BFE9957570A9873F4F)
  3. Complete name                            : /home/mh/Mult/Encode/Teen Titans Go Vs Teen Titans 2019 1080p BluRay 10-Bit AC3 5.1 x265 - ElPro.mkv
  4. Format                                   : Matroska
  5. Format version                           : Version 4 / Version 2
  6. File size                                : 1.70 GiB
  7. Duration                                 : 1 h 16 min
  8. Overall bit rate                         : 3 154 kb/s
  9. Movie name                               : Teen Titans Go Vs Teen Titans 2019 1080p BluRay 10-Bit AC3 5.1 x265 - ElPro
  10. Encoded date                             : UTC 2019-12-04 17:49:39
  11. Writing application                      : mkvmerge v40.0.0 ('Old Town Road + Pony') 64-bit
  12. Writing library                          : libebml v1.3.9 + libmatroska v1.5.2
  13.  
  14. Video
  15. ID                                       : 1
  16. Format                                   : HEVC
  17. Format/Info                              : High Efficiency Video Coding
  18. Format profile                           : Main 10@L4@Main
  19. Codec ID                                 : V_MPEGH/ISO/HEVC
  20. Duration                                 : 1 h 16 min
  21. Bit rate                                 : 2 600 kb/s
  22. Width                                    : 1 920 pixels
  23. Height                                   : 1 080 pixels
  24. Display aspect ratio                     : 16:9
  25. Frame rate mode                          : Constant
  26. Frame rate                               : 23.976 (24000/1001) FPS
  27. Color space                              : YUV
  28. Chroma subsampling                       : 4:2:0
  29. Bit depth                                : 10 bits
  30. Bits/(Pixel*Frame)                       : 0.052
  31. Stream size                              : 1.40 GiB (82%)
  32. Writing library                          : x265 2.9:[Linux][GCC 7.3.0][64 bit] 10bit
  33. Encoding settings                        : cpuid=1049087 / frame-threads=2 / wpp / no-pmode / no-pme / no-psnr / no-ssim / log-level=2 / input-csp=1 / input-res=1920x1080 / interlace=0 / total-frames=0 / level-idc=0 / high-tier=1 / uhd-bd=0 / ref=3 / no-allow-non-conformance / no-repeat-headers / annexb / no-aud / no-hrd / info / hash=0 / no-temporal-layers / open-gop / min-keyint=24 / keyint=240 / gop-lookahead=0 / bframes=4 / b-adapt=2 / b-pyramid / bframe-bias=0 / rc-lookahead=20 / lookahead-slices=6 / scenecut=40 / radl=0 / no-intra-refresh / ctu=64 / min-cu-size=8 / no-rect / no-amp / max-tu-size=32 / tu-inter-depth=1 / tu-intra-depth=1 / limit-tu=0 / rdoq-level=0 / dynamic-rd=0.00 / no-ssim-rd / signhide / no-tskip / nr-intra=0 / nr-inter=0 / no-constrained-intra / strong-intra-smoothing / max-merge=2 / limit-refs=3 / no-limit-modes / me=1 / subme=2 / merange=57 / temporal-mvp / weightp / no-weightb / no-analyze-src-pics / deblock=0:0 / sao / no-sao-non-deblock / rd=3 / no-early-skip / rskip / no-fast-intra / no-tskip-fast / no-cu-lossless / no-b-intra / no-splitrd-skip / rdpenalty=0 / psy-rd=2.00 / psy-rdoq=0.00 / no-rd-refine / no-lossless / cbqpoffs=0 / crqpoffs=0 / rc=abr / bitrate=2600 / qcomp=0.60 / qpstep=4 / stats-write=0 / stats-read=2 / cplxblur=20.0 / qblur=0.5 / ipratio=1.40 / pbratio=1.30 / aq-mode=1 / aq-strength=1.00 / cutree / zone-count=0 / no-strict-cbr / qg-size=32 / no-rc-grain / qpmax=69 / qpmin=0 / no-const-vbv / sar=1 / overscan=0 / videoformat=5 / range=0 / colorprim=1 / transfer=1 / colormatrix=1 / chromaloc=0 / display-window=0 / max-cll=0,0 / min-luma=0 / max-luma=1023 / log2-max-poc-lsb=8 / vui-timing-info / vui-hrd-info / slices=1 / no-opt-qp-pps / no-opt-ref-list-length-pps / no-multi-pass-opt-rps / scenecut-bias=0.05 / no-opt-cu-delta-qp / no-aq-motion / no-hdr / no-hdr-opt / no-dhdr10-opt / no-idr-recovery-sei / analysis-reuse-level=5 / scale-factor=0 / refine-intra=0 / refine-inter=0 / refine-mv=0 / no-limit-sao / ctu-info=0 / no-lowpass-dct / refine-mv-type=0 / copy-pic=1 / max-ausize-factor=1.0 / no-dynamic-refine / no-single-sei
  34. Default                                  : Yes
  35. Forced                                   : No
  36. Color range                              : Limited
  37. Color primaries                          : BT.709
  38. Transfer characteristics                 : BT.709
  39. Matrix coefficients                      : BT.709
  40.  
  41. Audio
  42. ID                                       : 2
  43. Format                                   : AC-3
  44. Format/Info                              : Audio Coding 3
  45. Codec ID                                 : A_AC3
  46. Duration                                 : 1 h 16 min
  47. Bit rate mode                            : Constant
  48. Bit rate                                 : 384 kb/s
  49. Channel(s)                               : 6 channels
  50. Channel positions                        : Front: L C R, Side: L R, LFE
  51. Sampling rate                            : 48.0 kHz
  52. Frame rate                               : 31.250 FPS (1536 SPF)
  53. Bit depth                                : 16 bits
  54. Compression mode                         : Lossy
  55. Delay relative to video                  : -5 ms
  56. Stream size                              : 211 MiB (12%)
  57. Title                                    : Surround
  58. Language                                 : English
  59. Service kind                             : Complete Main
  60. Default                                  : Yes
  61. Forced                                   : No
  62.  
  63. Text #1
  64. ID                                       : 3
  65. Format                                   : PGS
  66. Codec ID                                 : S_HDMV/PGS
  67. Codec ID/Info                            : Picture based subtitle format used on BDs/HD-DVDs
  68. Duration                                 : 1 h 16 min
  69. Bit rate                                 : 44.0 kb/s
  70. Count of elements                        : 2702
  71. Stream size                              : 24.0 MiB (1%)
  72. Language                                 : English
  73. Default                                  : Yes
  74. Forced                                   : No
  75.  
  76. Text #2
  77. ID                                       : 4
  78. Format                                   : PGS
  79. Codec ID                                 : S_HDMV/PGS
  80. Codec ID/Info                            : Picture based subtitle format used on BDs/HD-DVDs
  81. Duration                                 : 1 h 16 min
  82. Bit rate                                 : 36.3 kb/s
  83. Count of elements                        : 2312
  84. Stream size                              : 19.8 MiB (1%)
  85. Language                                 : French
  86. Default                                  : No
  87. Forced                                   : No
  88.  
  89. Text #3
  90. ID                                       : 5
  91. Format                                   : PGS
  92. Codec ID                                 : S_HDMV/PGS
  93. Codec ID/Info                            : Picture based subtitle format used on BDs/HD-DVDs
  94. Duration                                 : 1 h 16 min
  95. Bit rate                                 : 39.4 kb/s
  96. Count of elements                        : 2308
  97. Stream size                              : 21.6 MiB (1%)
  98. Language                                 : Spanish
  99. Default                                  : No
  100. Forced                                   : No
  101.  
  102. Text #4
  103. ID                                       : 6
  104. Format                                   : PGS
  105. Codec ID                                 : S_HDMV/PGS
  106. Codec ID/Info                            : Picture based subtitle format used on BDs/HD-DVDs
  107. Duration                                 : 1 h 16 min
  108. Bit rate                                 : 49.5 kb/s
  109. Count of elements                        : 2752
  110. Stream size                              : 27.1 MiB (2%)
  111. Language                                 : German
  112. Default                                  : No
  113. Forced                                   : No
RAW Paste Data
We use cookies for various purposes including analytics. By continuing to use Pastebin, you agree to our use of cookies as described in the Cookies Policy. OK, I Understand
Top