Guest User

Untitled

a guest
May 10th, 2019
33
Never
Not a member of Pastebin yet? Sign Up, it unlocks many cool features!
  1. General
  2. Unique ID : 190948227983253142127829974235295863773 (0x8FA74A7FA2AE83AFA0AEC662A7E553DD)
  3. Complete name : The.Legend.of.1900.1998.1080p.Bluray.X264-BARC0DE.mkv
  4. Format : Matroska
  5. Format version : Version 2
  6. File size : 13.5 GiB
  7. Duration : 2 h 49 min
  8. Overall bit rate : 11.4 Mb/s
  9. Encoded date : UTC 2013-08-20 17:44:42
  10. Writing application : mkvmerge v5.8.0 ('No Sleep / Pillow') built on Sep 2 2012 15:37:04
  11. Writing library : libebml v1.2.3 + libmatroska v1.3.0
  12.  
  13. Video
  14. ID : 1
  15. Format : AVC
  16. Format/Info : Advanced Video Codec
  17. Format profile : Main@L4
  18. Format settings : 2 Ref Frames
  19. Format settings, CABAC : No
  20. Format settings, Reference frames : 2 frames
  21. Muxing mode : Header stripping
  22. Codec ID : V_MPEG4/ISO/AVC
  23. Duration : 2 h 49 min
  24. Bit rate : 10 000 kb/s
  25. Width : 1 920 pixels
  26. Height : 816 pixels
  27. Display aspect ratio : 2.35:1
  28. Frame rate mode : Constant
  29. Frame rate : 23.976 (24000/1001) FPS
  30. Color space : YUV
  31. Chroma subsampling : 4:2:0
  32. Bit depth : 8 bits
  33. Scan type : Progressive
  34. Bits/(Pixel*Frame) : 0.266
  35. Stream size : 11.5 GiB (85%)
  36. Writing library : x264 core 112
  37. Encoding settings : cabac=0 / ref=1 / deblock=1:0:0 / analyse=0x1:0x111 / me=umh / subme=5 / psy=1 / psy_rd=0.00:0.00 / mixed_ref=0 / me_range=16 / chroma_me=1 / trellis=0 / 8x8dct=0 / cqm=0 / deadzone=21,11 / fast_pskip=0 / chroma_qp_offset=0 / threads=6 / sliced_threads=0 / nr=0 / decimate=1 / interlaced=0 / constrained_intra=0 / bframes=3 / b_pyramid=0 / b_adapt=1 / b_bias=0 / direct=1 / weightb=0 / open_gop=0 / weightp=0 / keyint=240 / keyint_min=23 / scenecut=40 / intra_refresh=0 / rc_lookahead=40 / rc=abr / mbtree=1 / bitrate=10000 / ratetol=1.0 / qcomp=0.60 / qpmin=3 / qpmax=51 / qpstep=4 / ip_ratio=1.40 / aq=1:1.00
  38. Language : English
  39. Default : Yes
  40. Forced : No
  41. Color range : Limited
  42. Color primaries : BT.709
  43. Transfer characteristics : BT.709
  44. Matrix coefficients : BT.709
  45.  
  46. Audio
  47. ID : 2
  48. Format : DTS
  49. Format/Info : Digital Theater Systems
  50. Muxing mode : Header stripping
  51. Codec ID : A_DTS
  52. Duration : 2 h 49 min
  53. Bit rate mode : Constant
  54. Bit rate : 1 509 kb/s
  55. Channel(s) : 6 channels
  56. Channel layout : C L R Ls Rs LFE
  57. Sampling rate : 48.0 kHz
  58. Frame rate : 93.750 FPS (512 SPF)
  59. Bit depth : 16 bits
  60. Compression mode : Lossy
  61. Stream size : 1.79 GiB (13%)
  62. Language : English
  63. Default : Yes
  64. Forced : No
  65.  
  66. Menu
  67. 00:00:00.000 : en:Chapter 1
  68. 00:10:47.915 : en:Chapter 2
  69. 00:14:25.758 : en:Chapter 3
  70. 00:16:17.411 : en:Chapter 4
  71. 00:45:45.052 : en:Chapter 5
  72. 01:13:41.852 : en:Chapter 6
  73. 01:24:49.060 : en:Chapter 7
  74. 01:49:14.858 : en:Chapter 8
  75. 01:58:17.817 : en:Chapter 9
  76. 02:14:01.635 : en:Chapter 10
  77. 02:26:44.438 : en:Chapter 11
  78. 02:40:58.708 : en:Chapter 12
RAW Paste Data