SHARE
TWEET

Untitled

GrabHD Feb 21st, 2020 185 Never
Not a member of Pastebin yet? Sign Up, it unlocks many cool features!
  1. Общее
  2. Уникальный идентификатор : 218504036406536557285438930947120203662 (0xA46258BF4403F82E823C7947B47A878E)
  3. Полное имя : D:\Раздача\Chego.On.Hochen.2020.NF.WEB-DL 1080p-HEVC.grab777.mkv
  4. Формат : Matroska
  5. Версия формата : Version 4 / Version 2
  6. Размер файла : 5,28 Гбайт
  7. Продолжительность : 1 ч. 55 м.
  8. Общий поток : 6527 Кбит/сек
  9. Название фильма : The Last Thing He Wanted.2020.NF.WEB-DL 1080p-HEVC.grab777
  10. Дата кодирования : UTC 2020-02-21 20:55:23
  11. Программа кодирования : mkvmerge v7.3.0 ('Nouages') 64bit built on Oct 22 2014 18:53:34
  12. Библиотека кодирования : libebml v1.3.0 + libmatroska v1.4.1
  13.  
  14. Видео
  15. Идентификатор : 1
  16. Формат : HEVC
  17. Формат/Информация : High Efficiency Video Coding
  18. Профиль формата : Main 10@L4@Main
  19. Идентификатор кодека : V_MPEGH/ISO/HEVC
  20. Продолжительность : 1 ч. 55 м.
  21. Битрейт : 5245 Кбит/сек
  22. Ширина : 1920 пикселей
  23. Высота : 1080 пикселей
  24. Соотношение сторон : 16:9
  25. Режим частоты кадров : Постоянный
  26. Частота кадров : 24,000 кадра/сек
  27. Цветовое пространство : YUV
  28. Субдискретизация насыщенности : 4:2:0
  29. Битовая глубина : 10 бит
  30. Бит/(Пиксели*Кадры) : 0.105
  31. Размер потока : 4,24 Гбайт (80%)
  32. Заголовок : Sborka grab777
  33. Default : Да
  34. Forced : Нет
  35. Цветовой диапазон : Limited
  36. Основные цвета : BT.709
  37. Характеристики трансфера : BT.709
  38. Коэффициенты матрицы : BT.709
  39.  
  40. Аудио #1
  41. Идентификатор : 2
  42. Формат : AC-3
  43. Формат/Информация : Audio Coding 3
  44. Параметр Endianness формата : Big
  45. Идентификатор кодека : A_AC3
  46. Продолжительность : 1 ч. 55 м.
  47. Вид битрейта : Постоянный
  48. Битрейт : 640 Кбит/сек
  49. Каналы : 6 каналов
  50. Расположение каналов : Front: L C R, Side: L R, LFE
  51. Частота : 48,0 КГц
  52. Частота кадров : 31,250 кадров/сек (1536 SPF)
  53. Битовая глубина : 16 бит
  54. Метод сжатия : С потерями
  55. Размер потока : 530 Мбайт (10%)
  56. Заголовок : Dub (Pifagor)
  57. Язык : Russian
  58. ServiceKind/String : Complete Main
  59. Default : Да
  60. Forced : Нет
  61.  
  62. Аудио #2
  63. Идентификатор : 3
  64. Формат : AC-3
  65. Формат/Информация : Audio Coding 3
  66. Параметр Endianness формата : Big
  67. Идентификатор кодека : A_AC3
  68. Продолжительность : 1 ч. 55 м.
  69. Вид битрейта : Постоянный
  70. Битрейт : 640 Кбит/сек
  71. Каналы : 6 каналов
  72. Расположение каналов : Front: L C R, Side: L R, LFE
  73. Частота : 48,0 КГц
  74. Частота кадров : 31,250 кадров/сек (1536 SPF)
  75. Битовая глубина : 16 бит
  76. Метод сжатия : С потерями
  77. Размер потока : 530 Мбайт (10%)
  78. Заголовок : Original
  79. Язык : English
  80. ServiceKind/String : Complete Main
  81. Default : Нет
  82. Forced : Нет
  83.  
  84. Текст #1
  85. Идентификатор : 4
  86. Формат : UTF-8
  87. Идентификатор кодека : S_TEXT/UTF8
  88. Идентификатор кодека/Информация : UTF-8 Plain Text
  89. Продолжительность : 1 ч. 46 м.
  90. Битрейт : 5 бит/сек
  91. ElementCount : 78
  92. Размер потока : 4,21 Кбайт (0%)
  93. Заголовок : Forced
  94. Язык : Russian
  95. Default : Нет
  96. Forced : Нет
  97.  
  98. Текст #2
  99. Идентификатор : 5
  100. Формат : UTF-8
  101. Идентификатор кодека : S_TEXT/UTF8
  102. Идентификатор кодека/Информация : UTF-8 Plain Text
  103. Продолжительность : 1 ч. 47 м.
  104. Битрейт : 109 бит/сек
  105. ElementCount : 1634
  106. Размер потока : 86,8 Кбайт (0%)
  107. Язык : Russian
  108. Default : Нет
  109. Forced : Нет
  110.  
  111. Текст #3
  112. Идентификатор : 6
  113. Формат : UTF-8
  114. Идентификатор кодека : S_TEXT/UTF8
  115. Идентификатор кодека/Информация : UTF-8 Plain Text
  116. Продолжительность : 1 м. 16 с.
  117. Битрейт : 62 бит/сек
  118. ElementCount : 18
  119. Размер потока : 595 байт (0%)
  120. Заголовок : Forced
  121. Язык : English
  122. Default : Нет
  123. Forced : Нет
  124.  
  125. Текст #4
  126. Идентификатор : 7
  127. Формат : UTF-8
  128. Идентификатор кодека : S_TEXT/UTF8
  129. Идентификатор кодека/Информация : UTF-8 Plain Text
  130. Продолжительность : 1 ч. 45 м.
  131. Битрейт : 76 бит/сек
  132. ElementCount : 1686
  133. Размер потока : 59,1 Кбайт (0%)
  134. Язык : English
  135. Default : Нет
  136. Forced : Нет
  137.  
  138. Текст #5
  139. Идентификатор : 8
  140. Формат : UTF-8
  141. Идентификатор кодека : S_TEXT/UTF8
  142. Идентификатор кодека/Информация : UTF-8 Plain Text
  143. Продолжительность : 1 ч. 49 м.
  144. Битрейт : 82 бит/сек
  145. ElementCount : 1923
  146. Размер потока : 66,0 Кбайт (0%)
  147. Заголовок : SDH
  148. Язык : English
  149. Default : Нет
  150. Forced : Нет
RAW Paste Data
We use cookies for various purposes including analytics. By continuing to use Pastebin, you agree to our use of cookies as described in the Cookies Policy. OK, I Understand
Top