Henry_Kr

GIJR-S01

May 3rd, 2021
30
Never
Not a member of Pastebin yet? Sign Up, it unlocks many cool features!
  1. Format : Matroska
  2. Format version : Version 2
  3. File size : 1.16 GiB
  4. Duration : 22 min 7 s
  5. Overall bit rate : 7 521 kb/s
  6. Encoded date : UTC 2021-05-03 16:36:54
  7. Writing application : mkvmerge v5.8.0 ('No Sleep / Pillow') built on Sep 2 2012 15:37:04
  8. Writing library : libebml v1.2.3 + libmatroska v1.3.0
  9.  
  10. Video
  11. ID : 1
  12. Format : AVC
  13. Format/Info : Advanced Video Codec
  14. Format profile : High@L4.1
  15. Format settings : CABAC / 4 Ref Frames
  16. Format settings, CABAC : Yes
  17. Format settings, Reference : 4 frames
  18. Muxing mode : Header stripping
  19. Codec ID : V_MPEG4/ISO/AVC
  20. Duration : 22 min 7 s
  21. Bit rate : 5 565 kb/s
  22. Width : 1 920 pixels
  23. Height : 1 080 pixels
  24. Display aspect ratio : 16:9
  25. Frame rate mode : Constant
  26. Frame rate : 23.976 (24000/1001) FPS
  27. Color space : YUV
  28. Chroma subsampling : 4:2:0
  29. Bit depth : 8 bits
  30. Scan type : Progressive
  31. Bits/(Pixel*Frame) : 0.112
  32. Stream size : 857 MiB (72%)
  33. Title : G.I.Joe.Renegades.S01E01.A.Queda.Parte.I.1080p.BluRay.[CartoonNOW]
  34. Writing library : x264 core 128 r2216 198a7ea
  35. Language : English
  36. Default : Yes
  37. Forced : No
  38.  
  39. Audio #1
  40. ID : 2
  41. Format : DTS
  42. Format/Info : Digital Theater Systems
  43. Muxing mode : Header stripping
  44. Codec ID : A_DTS
  45. Duration : 22 min 7 s
  46. Bit rate mode : Constant
  47. Bit rate : 447 kb/s
  48. Channel(s) : 2 channels
  49. Channel layout : L R
  50. Sampling rate : 48.0 kHz
  51. Frame rate : 93.750 FPS (512 SPF)
  52. Bit depth : 24 bits
  53. Compression mode : Lossy
  54. Stream size : 70.7 MiB (6%)
  55. Title : DTS 2.0
  56. Language : Portuguese
  57. Default : Yes
  58. Forced : No
  59.  
  60. Audio #2
  61. ID : 3
  62. Format : DTS
  63. Format/Info : Digital Theater Systems
  64. Muxing mode : Header stripping
  65. Codec ID : A_DTS
  66. Duration : 22 min 7 s
  67. Bit rate mode : Constant
  68. Bit rate : 1 509 kb/s
  69. Channel(s) : 6 channels
  70. Channel layout : C L R Ls Rs LFE
  71. Sampling rate : 48.0 kHz
  72. Frame rate : 93.750 FPS (512 SPF)
  73. Bit depth : 24 bits
  74. Compression mode : Lossy
  75. Stream size : 239 MiB (20%)
  76. Title : DTS 5.1
  77. Language : English
  78. Default : No
  79. Forced : No
  80.  
  81. Text
  82. ID : 4
  83. Format : UTF-8
  84. Codec ID : S_TEXT/UTF8
  85. Codec ID/Info : UTF-8 Plain Text
  86. Title : Completa
  87. Language : Portuguese
  88. Default : No
  89. Forced : No
RAW Paste Data

Adblocker detected! Please consider disabling it...

We've detected AdBlock Plus or some other adblocking software preventing Pastebin.com from fully loading.

We don't have any obnoxious sound, or popup ads, we actively block these annoying types of ads!

Please add Pastebin.com to your ad blocker whitelist or disable your adblocking software.

×