SHARE
TWEET

Dark: Season 1 1080p WEB-RIP

dirtyharrys Jul 3rd, 2019 16 Never
Not a member of Pastebin yet? Sign Up, it unlocks many cool features!
  1. General
  2. Unique ID                   : 118014160866017197341213076159881367694 (0x58C8B35C508BA6FC240B7E5A3E29508E)
  3. Complete name               : E:\DARK.S01\D-S01E01-264.mkv
  4. Format                      : Matroska
  5. Format version              : Version 4
  6. File size                   : 1.97 GiB
  7. Duration                    : 51 min 30 s
  8. Overall bit rate mode       : Variable
  9. Overall bit rate            : 5 486 kb/s
  10. Movie name                  : DARK S01E01 / DARK: Season One
  11. Description                 : Episode 01: "Secrets"
  12. Encoded date                : UTC 2019-06-26 07:33:53
  13. Writing application         : mkvmerge v30.1.0 ('Forever And More') 32-bit
  14. Writing library             : libebml v1.3.6 + libmatroska v1.4.9
  15. Copyright                   : Movies HDs 2019
  16. ARTIST                      : HarshLearner
  17.  
  18. Video
  19. ID                          : 1
  20. Format                      : AVC
  21. Format/Info                 : Advanced Video Codec
  22. Format profile              : Main@L4
  23. Format settings             : CABAC / 3 Ref Frames
  24. Format settings, CABAC      : Yes
  25. Format settings, ReFrames   : 3 frames
  26. Codec ID                    : V_MPEG4/ISO/AVC
  27. Duration                    : 51 min 30 s
  28. Bit rate mode               : Variable
  29. Bit rate                    : 4 420 kb/s
  30. Maximum bit rate            : 6 630 kb/s
  31. Width                       : 1 920 pixels
  32. Height                      : 1 080 pixels
  33. Display aspect ratio        : 16:9
  34. Frame rate mode             : Constant
  35. Frame rate                  : 24.000 FPS
  36. Color space                 : YUV
  37. Chroma subsampling          : 4:2:0
  38. Bit depth                   : 8 bits
  39. Scan type                   : Progressive
  40. Bits/(Pixel*Frame)          : 0.089
  41. Stream size                 : 1.58 GiB (80%)
  42. Title                       : S01E01: Secrets
  43. Writing library             : x264 core 148
  44. Encoding settings           : cabac=1 / ref=3 / deblock=1:0:0 / analyse=0x1:0x111 / me=umh / subme=10 / psy=1 / psy_rd=1.00:0.00 / mixed_ref=1 / me_range=24 / chroma_me=1 / trellis=2 / 8x8dct=0 / cqm=0 / deadzone=21,11 / fast_pskip=1 / chroma_qp_offset=-2 / threads=8 / lookahead_threads=1 / sliced_threads=0 / nr=0 / decimate=1 / interlaced=0 / bluray_compat=0 / stitchable=1 / constrained_intra=0 / bframes=2 / b_pyramid=0 / b_adapt=2 / b_bias=0 / direct=3 / weightb=1 / open_gop=0 / weightp=2 / keyint=48 / keyint_min=25 / scenecut=0 / intra_refresh=0 / rc_lookahead=48 / rc=2pass / mbtree=1 / bitrate=4420 / ratetol=1.0 / qcomp=0.50 / qpmin=6 / qpmax=51 / qpstep=4 / cplxblur=20.0 / qblur=0.5 / vbv_maxrate=6630 / vbv_bufsize=8840 / nal_hrd=vbr / filler=0 / ip_ratio=1.40 / aq=1:1.00
  45. Default                     : Yes
  46. Forced                      : No
  47.  
  48. Audio #1
  49. ID                          : 2
  50. Format                      : E-AC-3 JOC
  51. Format/Info                 : Enhanced AC-3 with Joint Object Coding
  52. Commercial name             : Dolby Digital Plus with Dolby Atmos
  53. Codec ID                    : A_EAC3
  54. Duration                    : 51 min 16 s
  55. Bit rate mode               : Constant
  56. Bit rate                    : 448 kb/s
  57. Channel(s)                  : 6 channels
  58. Channel layout              : L R C LFE Ls Rs
  59. Sampling rate               : 48.0 kHz
  60. Frame rate                  : 31.250 FPS (1536 SPF)
  61. Compression mode            : Lossy
  62. Stream size                 : 164 MiB (8%)
  63. Language                    : German
  64. Service kind                : Complete Main
  65. Default                     : No
  66. Forced                      : No
  67. Complexity index            : 16
  68. Number of dynamic objects   : 15
  69. Bed channel count           : 1 channel
  70. Bed channel configuration   : LFE
  71.  
  72. Audio #2
  73. ID                          : 3
  74. Format                      : E-AC-3
  75. Format/Info                 : Enhanced AC-3
  76. Commercial name             : Dolby Digital Plus
  77. Codec ID                    : A_EAC3
  78. Duration                    : 51 min 30 s
  79. Bit rate mode               : Constant
  80. Bit rate                    : 640 kb/s
  81. Channel(s)                  : 6 channels
  82. Channel layout              : L R C LFE Ls Rs
  83. Sampling rate               : 48.0 kHz
  84. Frame rate                  : 31.250 FPS (1536 SPF)
  85. Compression mode            : Lossy
  86. Stream size                 : 236 MiB (12%)
  87. Language                    : Spanish
  88. Service kind                : Complete Main
  89. Default                     : Yes
  90. Forced                      : Yes
  91.  
  92. Text #1
  93. ID                          : 4
  94. Format                      : UTF-8
  95. Codec ID                    : S_TEXT/UTF8
  96. Codec ID/Info               : UTF-8 Plain Text
  97. Duration                    : 50 min 57 s
  98. Bit rate                    : 40 b/s
  99. Count of elements           : 468
  100. Stream size                 : 15.0 KiB (0%)
  101. Language                    : English
  102. Default                     : No
  103. Forced                      : No
  104.  
  105. Text #2
  106. ID                          : 5
  107. Format                      : UTF-8
  108. Codec ID                    : S_TEXT/UTF8
  109. Codec ID/Info               : UTF-8 Plain Text
  110. Duration                    : 50 min 58 s
  111. Bit rate                    : 40 b/s
  112. Count of elements           : 467
  113. Stream size                 : 15.1 KiB (0%)
  114. Language                    : Spanish
  115. Default                     : Yes
  116. Forced                      : Yes
  117.  
  118. Text #3
  119. ID                          : 6
  120. Format                      : UTF-8
  121. Codec ID                    : S_TEXT/UTF8
  122. Codec ID/Info               : UTF-8 Plain Text
  123. Duration                    : 50 min 58 s
  124. Bit rate                    : 2 b/s
  125. Count of elements           : 22
  126. Stream size                 : 846 Bytes (0%)
  127. Language                    : Spanish
  128. Default                     : No
  129. Forced                      : No
RAW Paste Data
We use cookies for various purposes including analytics. By continuing to use Pastebin, you agree to our use of cookies as described in the Cookies Policy. OK, I Understand
 
Top