AlemaoPS

Untitled

Aug 19th, 2019
229
Never
Not a member of Pastebin yet? Sign Up, it unlocks many cool features!
  1. Video
  2. ID : 1
  3. Format : AVC
  4. Format/Info : Advanced Video Codec
  5. Format profile : High@L4.1
  6. Format settings : CABAC / 4 Ref Frames
  7. Format settings, CABAC : Yes
  8. Format settings, Reference frames : 4 frames
  9. Codec ID : V_MPEG4/ISO/AVC
  10. Duration : 2 h 1 min
  11. Bit rate mode : Variable
  12. Bit rate : 29.2 Mb/s
  13. Maximum bit rate : 32.6 Mb/s
  14. Width : 1 920 pixels
  15. Height : 1 080 pixels
  16. Display aspect ratio : 16:9
  17. Frame rate mode : Constant
  18. Frame rate : 23.976 (24000/1001) FPS
  19. Color space : YUV
  20. Chroma subsampling : 4:2:0
  21. Bit depth : 8 bits
  22. Scan type : Progressive
  23. Bits/(Pixel*Frame) : 0.588
  24. Stream size : 24.8 GiB (70%)
  25. Title : Rocketman.2019.1080p.BluRay.REMUX.AVC.DTS-HD.MA.TrueHD.7.1.Atmos-FGT
  26. Language : English
  27. Default : No
  28. Forced : No
  29.  
  30. Audio #1
  31. ID : 2
  32. Format : MLP FBA 16-ch
  33. Format/Info : Meridian Lossless Packing FBA with 16-channel presentation
  34. Commercial name : Dolby TrueHD with Dolby Atmos
  35. Codec ID : A_TRUEHD
  36. Duration : 2 h 1 min
  37. Bit rate mode : Variable
  38. Bit rate : 4 133 kb/s
  39. Maximum bit rate : 7 836 kb/s
  40. Channel(s) : 8 channels
  41. Channel layout : L R C LFE Ls Rs Lb Rb
  42. Sampling rate : 48.0 kHz
  43. Frame rate : 1 200.000 FPS (40 SPF)
  44. Compression mode : Lossless
  45. Stream size : 3.50 GiB (10%)
  46. Title : Rocketman.2019.1080p.BluRay.REMUX.AVC.DTS-HD.MA.TrueHD.7.1.Atmos-FGT
  47. Language : English
  48. Default : Yes
  49. Forced : No
  50. Number of dynamic objects : 11
  51. Bed channel count : 1 channel
  52. Bed channel configuration : LFE
  53.  
  54. Audio #2
  55. ID : 3
  56. Format : DTS XLL
  57. Format/Info : Digital Theater Systems
  58. Commercial name : DTS-HD Master Audio
  59. Codec ID : A_DTS
  60. Duration : 2 h 1 min
  61. Bit rate mode : Variable
  62. Bit rate : 4 185 kb/s
  63. Channel(s) : 8 channels
  64. Channel layout : C L R LFE Lb Rb Lss Rss
  65. Sampling rate : 48.0 kHz
  66. Frame rate : 93.750 FPS (512 SPF)
  67. Bit depth : 24 bits
  68. Compression mode : Lossless
  69. Stream size : 3.54 GiB (10%)
  70. Title : Rocketman.2019.1080p.BluRay.REMUX.AVC.DTS-HD.MA.TrueHD.7.1.Atmos-FGT
  71. Language : English
  72. Default : No
  73. Forced : No
  74.  
  75. Audio #3
  76. ID : 4
  77. Format : AC-3
  78. Format/Info : Audio Coding 3
  79. Commercial name : Dolby Digital
  80. Codec ID : A_AC3
  81. Duration : 2 h 1 min
  82. Bit rate mode : Constant
  83. Bit rate : 640 kb/s
  84. Channel(s) : 6 channels
  85. Channel layout : L R C LFE Ls Rs
  86. Sampling rate : 48.0 kHz
  87. Frame rate : 31.250 FPS (1536 SPF)
  88. Bit depth : 16 bits
  89. Compression mode : Lossy
  90. Stream size : 555 MiB (2%)
  91. Title : Rocketman.2019.1080p.BluRay.REMUX.AVC.DTS-HD.MA.TrueHD.7.1.Atmos-FGT
  92. Language : English
  93. Service kind : Complete Main
  94. Default : No
  95. Forced : No
  96.  
  97. Audio #4
  98. ID : 5
  99. Format : AC-3
  100. Format/Info : Audio Coding 3
  101. Commercial name : Dolby Digital
  102. Codec ID : A_AC3
  103. Duration : 2 h 1 min
  104. Bit rate mode : Constant
  105. Bit rate : 640 kb/s
  106. Channel(s) : 6 channels
  107. Channel layout : L R C LFE Ls Rs
  108. Sampling rate : 48.0 kHz
  109. Frame rate : 31.250 FPS (1536 SPF)
  110. Bit depth : 16 bits
  111. Compression mode : Lossy
  112. Stream size : 555 MiB (2%)
  113. Title : Rocketman.2019.1080p.BluRay.REMUX.AVC.DTS-HD.MA.TrueHD.7.1.Atmos-FGT
  114. Language : English
  115. Service kind : Complete Main
  116. Default : No
  117. Forced : No
  118.  
  119. Audio #5
  120. ID : 6
  121. Format : AC-3
  122. Format/Info : Audio Coding 3
  123. Commercial name : Dolby Digital
  124. Codec ID : A_AC3
  125. Duration : 2 h 1 min
  126. Bit rate mode : Constant
  127. Bit rate : 640 kb/s
  128. Channel(s) : 6 channels
  129. Channel layout : L R C LFE Ls Rs
  130. Sampling rate : 48.0 kHz
  131. Frame rate : 31.250 FPS (1536 SPF)
  132. Bit depth : 16 bits
  133. Compression mode : Lossy
  134. Stream size : 555 MiB (2%)
  135. Title : Rocketman.2019.1080p.BluRay.REMUX.AVC.DTS-HD.MA.TrueHD.7.1.Atmos-FGT
  136. Language : Spanish
  137. Service kind : Complete Main
  138. Default : No
  139. Forced : No
  140.  
  141. Audio #6
  142. ID : 7
  143. Format : AC-3
  144. Format/Info : Audio Coding 3
  145. Commercial name : Dolby Digital
  146. Codec ID : A_AC3
  147. Duration : 2 h 1 min
  148. Bit rate mode : Constant
  149. Bit rate : 640 kb/s
  150. Channel(s) : 6 channels
  151. Channel layout : L R C LFE Ls Rs
  152. Sampling rate : 48.0 kHz
  153. Frame rate : 31.250 FPS (1536 SPF)
  154. Bit depth : 16 bits
  155. Compression mode : Lossy
  156. Stream size : 555 MiB (2%)
  157. Title : Rocketman.2019.1080p.BluRay.REMUX.AVC.DTS-HD.MA.TrueHD.7.1.Atmos-FGT
  158. Language : French
  159. Service kind : Complete Main
  160. Default : No
  161. Forced : No
  162.  
  163. Audio #7
  164. ID : 8
  165. Format : AC-3
  166. Format/Info : Audio Coding 3
  167. Commercial name : Dolby Digital
  168. Codec ID : A_AC3
  169. Duration : 2 h 1 min
  170. Bit rate mode : Constant
  171. Bit rate : 640 kb/s
  172. Channel(s) : 6 channels
  173. Channel layout : L R C LFE Ls Rs
  174. Sampling rate : 48.0 kHz
  175. Frame rate : 31.250 FPS (1536 SPF)
  176. Bit depth : 16 bits
  177. Compression mode : Lossy
  178. Stream size : 555 MiB (2%)
  179. Title : Rocketman.2019.1080p.BluRay.REMUX.AVC.DTS-HD.MA.TrueHD.7.1.Atmos-FGT
  180. Language : Portuguese
  181. Service kind : Complete Main
  182. Default : No
  183. Forced : No
  184.  
  185. Audio #8
  186. ID : 9
  187. Format : AC-3
  188. Format/Info : Audio Coding 3
  189. Commercial name : Dolby Digital
  190. Codec ID : A_AC3
  191. Duration : 2 h 1 min
  192. Bit rate mode : Constant
  193. Bit rate : 640 kb/s
  194. Channel(s) : 6 channels
  195. Channel layout : L R C LFE Ls Rs
  196. Sampling rate : 48.0 kHz
  197. Frame rate : 31.250 FPS (1536 SPF)
  198. Bit depth : 16 bits
  199. Compression mode : Lossy
  200. Stream size : 555 MiB (2%)
  201. Title : Rocketman.2019.1080p.BluRay.REMUX.AVC.DTS-HD.MA.TrueHD.7.1.Atmos-FGT
  202. Language : Thai
  203. Service kind : Complete Main
  204. Default : No
  205. Forced : No
  206.  
  207. Text #1
  208. ID : 10
  209. Format : UTF-8
  210. Codec ID : S_TEXT/UTF8
  211. Codec ID/Info : UTF-8 Plain Text
  212. Duration : 1 h 58 min
  213. Bit rate : 66 b/s
  214. Count of elements : 1603
  215. Stream size : 57.8 KiB (0%)
  216. Title : English-SRT
  217. Language : English
  218. Default : Yes
  219. Forced : No
  220.  
  221. Text #2
  222. ID : 11
  223. Format : PGS
  224. Muxing mode : zlib
  225. Codec ID : S_HDMV/PGS
  226. Codec ID/Info : Picture based subtitle format used on BDs/HD-DVDs
  227. Duration : 1 h 50 min
  228. Bit rate : 37.3 kb/s
  229. Count of elements : 2638
  230. Stream size : 29.6 MiB (0%)
  231. Title : English-PGS
  232. Language : English
  233. Default : No
  234. Forced : No
  235.  
  236. Text #3
  237. ID : 12
  238. Format : PGS
  239. Muxing mode : zlib
  240. Codec ID : S_HDMV/PGS
  241. Codec ID/Info : Picture based subtitle format used on BDs/HD-DVDs
  242. Duration : 1 h 59 min
  243. Bit rate : 45.9 kb/s
  244. Count of elements : 3462
  245. Stream size : 39.1 MiB (0%)
  246. Title : English-SDH-PGS
  247. Language : English
  248. Default : No
  249. Forced : No
  250.  
  251. Text #4
  252. ID : 13
  253. Format : PGS
  254. Muxing mode : zlib
  255. Codec ID : S_HDMV/PGS
  256. Codec ID/Info : Picture based subtitle format used on BDs/HD-DVDs
  257. Duration : 1 h 58 min
  258. Bit rate : 39.2 kb/s
  259. Count of elements : 2696
  260. Stream size : 33.2 MiB (0%)
  261. Title : Malay-PGS
  262. Language : Malay
  263. Default : No
  264. Forced : No
  265.  
  266. Text #5
  267. ID : 14
  268. Format : PGS
  269. Muxing mode : zlib
  270. Codec ID : S_HDMV/PGS
  271. Codec ID/Info : Picture based subtitle format used on BDs/HD-DVDs
  272. Duration : 1 h 59 min
  273. Bit rate : 27.1 kb/s
  274. Count of elements : 2716
  275. Stream size : 23.2 MiB (0%)
  276. Title : Chinese-PGS
  277. Language : Chinese
  278. Default : No
  279. Forced : No
  280.  
  281. Text #6
  282. ID : 15
  283. Format : PGS
  284. Muxing mode : zlib
  285. Codec ID : S_HDMV/PGS
  286. Codec ID/Info : Picture based subtitle format used on BDs/HD-DVDs
  287. Duration : 1 h 58 min
  288. Bit rate : 33.4 kb/s
  289. Count of elements : 2700
  290. Stream size : 28.3 MiB (0%)
  291. Title : Spanish-PGS
  292. Language : Spanish
  293. Default : No
  294. Forced : No
  295.  
  296. Text #7
  297. ID : 16
  298. Format : PGS
  299. Muxing mode : zlib
  300. Codec ID : S_HDMV/PGS
  301. Codec ID/Info : Picture based subtitle format used on BDs/HD-DVDs
  302. Duration : 1 h 57 min
  303. Bit rate : 8 799 b/s
  304. Count of elements : 672
  305. Stream size : 7.37 MiB (0%)
  306. Title : Spanish-FORCED-PGS
  307. Language : Spanish
  308. Default : No
  309. Forced : No
  310.  
  311. Text #8
  312. ID : 17
  313. Format : PGS
  314. Muxing mode : zlib
  315. Codec ID : S_HDMV/PGS
  316. Codec ID/Info : Picture based subtitle format used on BDs/HD-DVDs
  317. Duration : 1 h 58 min
  318. Bit rate : 37.4 kb/s
  319. Count of elements : 2696
  320. Stream size : 31.7 MiB (0%)
  321. Title : French-PGS
  322. Language : French
  323. Default : No
  324. Forced : No
  325.  
  326. Text #9
  327. ID : 18
  328. Format : PGS
  329. Muxing mode : zlib
  330. Codec ID : S_HDMV/PGS
  331. Codec ID/Info : Picture based subtitle format used on BDs/HD-DVDs
  332. Duration : 1 h 57 min
  333. Bit rate : 9 655 b/s
  334. Count of elements : 672
  335. Stream size : 8.09 MiB (0%)
  336. Title : French-PGS
  337. Language : French
  338. Default : No
  339. Forced : No
  340.  
  341. Text #10
  342. ID : 19
  343. Format : PGS
  344. Muxing mode : zlib
  345. Codec ID : S_HDMV/PGS
  346. Codec ID/Info : Picture based subtitle format used on BDs/HD-DVDs
  347. Duration : 1 h 58 min
  348. Bit rate : 38.4 kb/s
  349. Count of elements : 2892
  350. Stream size : 32.7 MiB (0%)
  351. Title : Hindi-PGS
  352. Language : Hindi
  353. Default : No
  354. Forced : No
  355.  
  356. Text #11
  357. ID : 20
  358. Format : PGS
  359. Muxing mode : zlib
  360. Codec ID : S_HDMV/PGS
  361. Codec ID/Info : Picture based subtitle format used on BDs/HD-DVDs
  362. Duration : 1 h 59 min
  363. Bit rate : 23.5 kb/s
  364. Count of elements : 2716
  365. Stream size : 20.1 MiB (0%)
  366. Title : Korean-PGS
  367. Language : Korean
  368. Default : No
  369. Forced : No
  370.  
  371. Text #12
  372. ID : 21
  373. Format : PGS
  374. Muxing mode : zlib
  375. Codec ID : S_HDMV/PGS
  376. Codec ID/Info : Picture based subtitle format used on BDs/HD-DVDs
  377. Duration : 1 h 59 min
  378. Bit rate : 26.8 kb/s
  379. Count of elements : 2716
  380. Stream size : 22.9 MiB (0%)
  381. Title : Chinese-PGS
  382. Language : Chinese
  383. Default : No
  384. Forced : No
  385.  
  386. Text #13
  387. ID : 22
  388. Format : PGS
  389. Muxing mode : zlib
  390. Codec ID : S_HDMV/PGS
  391. Codec ID/Info : Picture based subtitle format used on BDs/HD-DVDs
  392. Duration : 1 h 58 min
  393. Bit rate : 32.1 kb/s
  394. Count of elements : 2698
  395. Stream size : 27.2 MiB (0%)
  396. Title : Portuguese-PGS
  397. Language : Portuguese
  398. Default : No
  399. Forced : No
  400.  
  401. Text #14
  402. ID : 23
  403. Format : PGS
  404. Muxing mode : zlib
  405. Codec ID : S_HDMV/PGS
  406. Codec ID/Info : Picture based subtitle format used on BDs/HD-DVDs
  407. Duration : 1 h 57 min
  408. Bit rate : 8 733 b/s
  409. Count of elements : 668
  410. Stream size : 7.32 MiB (0%)
  411. Title : Portuguese-FORCED-PGS
  412. Language : Portuguese
  413. Default : No
  414. Forced : No
  415.  
  416. Text #15
  417. ID : 24
  418. Format : PGS
  419. Muxing mode : zlib
  420. Codec ID : S_HDMV/PGS
  421. Codec ID/Info : Picture based subtitle format used on BDs/HD-DVDs
  422. Duration : 1 h 59 min
  423. Bit rate : 26.1 kb/s
  424. Count of elements : 2716
  425. Stream size : 22.3 MiB (0%)
  426. Title : Thai-PGS
  427. Language : Thai
  428. Default : No
  429. Forced : No
  430.  
  431. Text #16
  432. ID : 25
  433. Format : PGS
  434. Muxing mode : zlib
  435. Codec ID : S_HDMV/PGS
  436. Codec ID/Info : Picture based subtitle format used on BDs/HD-DVDs
  437. Duration : 1 h 57 min
  438. Bit rate : 6 735 b/s
  439. Count of elements : 684
  440. Stream size : 5.64 MiB (0%)
  441. Title : Thai-FORCED-PGS
  442. Language : Thai
  443. Default : No
  444. Forced : No
  445.  
  446. Text #17
  447. ID : 26
  448. Format : PGS
  449. Muxing mode : zlib
  450. Codec ID : S_HDMV/PGS
  451. Codec ID/Info : Picture based subtitle format used on BDs/HD-DVDs
  452. Duration : 1 h 51 min
  453. Bit rate : 49.8 kb/s
  454. Count of elements : 2527
  455. Stream size : 39.6 MiB (0%)
  456. Title : English-COMMENTARY-PGS
  457. Language : English
  458. Default : No
  459. Forced : No
  460.  
  461. Menu
  462. 00:00:00.000 : en:Chapter 01
  463. 00:05:50.725 : en:Chapter 02
  464. 00:11:20.805 : en:Chapter 03
  465. 00:18:43.080 : en:Chapter 04
  466. 00:22:39.858 : en:Chapter 05
  467. 00:28:01.054 : en:Chapter 06
  468. 00:34:21.392 : en:Chapter 07
  469. 00:38:35.229 : en:Chapter 08
  470. 00:42:52.444 : en:Chapter 09
  471. 00:50:40.579 : en:Chapter 10
  472. 00:57:30.905 : en:Chapter 11
  473. 01:04:05.800 : en:Chapter 12
  474. 01:09:28.914 : en:Chapter 13
  475. 01:16:10.941 : en:Chapter 14
  476. 01:24:43.745 : en:Chapter 15
  477. 01:29:09.010 : en:Chapter 16
  478. 01:35:22.383 : en:Chapter 17
  479. 01:42:46.243 : en:Chapter 18
  480. 01:51:11.831 : en:Chapter 19
  481. 01:55:25.293 : en:Chapter 20
RAW Paste Data

Adblocker detected! Please consider disabling it...

We've detected AdBlock Plus or some other adblocking software preventing Pastebin.com from fully loading.

We don't have any obnoxious sound, or popup ads, we actively block these annoying types of ads!

Please add Pastebin.com to your ad blocker whitelist or disable your adblocking software.

×