Advertisement
bog3417

Untitled

Nov 27th, 2013
459
0
Never
Not a member of Pastebin yet? Sign Up, it unlocks many cool features!
text 12.10 KB | None | 0 0
  1. Общее
  2. Уникальный идентификатор : 243708647936159712224526140172167629712 (0xB7589409F00EC12D95AB9A5F939D4B90)
  3. Полное имя : D:\Percy.JacksonSea.of.Monsters.2013.D.BDRip.720p.mkv
  4. Формат : Matroska
  5. Версия формата : Version 2
  6. Размер файла : 8,08 Гбайт
  7. Продолжительность : 1 ч. 46 м.
  8. Общий поток : 10,9 Мбит/сек
  9. Название фильма : Percy Jackson: Sea of Monsters (2013)
  10. Дата кодирования : UTC 2013-11-27 18:54:09
  11. Программа кодирования : mkvmerge v6.3.0 ('You can't stop me!') built on Jun 28 2013 20:09:41
  12. Библиотека кодирования : libebml v1.3.0 + libmatroska v1.4.0
  13.  
  14. Видео
  15. Идентификатор : 1
  16. Формат : AVC
  17. Формат/Информация : Advanced Video Codec
  18. Профиль формата : High@L4.1
  19. Параметр CABAC формата : Да
  20. Параметр ReFrames формата : 8 кадров
  21. Идентификатор кодека : V_MPEG4/ISO/AVC
  22. Продолжительность : 1 ч. 46 м.
  23. Битрейт : 7513 Кбит/сек
  24. Ширина : 1280 пикселей
  25. Высота : 544 пикселя
  26. Соотношение сторон : 2,35:1
  27. Режим частоты кадров : Постоянный
  28. Частота кадров : 23,976 кадра/сек
  29. Цветовое пространство : YUV
  30. Субдискретизация насыщенности : 4:2:0
  31. Битовая глубина : 8 бит
  32. Тип развёртки : Прогрессивная
  33. Бит/(Пиксели*Кадры) : 0.450
  34. Размер потока : 5,57 Гбайт (69%)
  35. Библиотека кодирования : x264 core 140 r2377 1ca7bb9
  36. Настройки программы : cabac=1 / ref=8 / deblock=1:-2:-2 / analyse=0x3:0x133 / me=umh / subme=11 / psy=1 / psy_rd=1.00:0.10 / mixed_ref=1 / me_range=48 / chroma_me=1 / trellis=2 / 8x8dct=1 / cqm=0 / deadzone=21,11 / fast_pskip=0 / chroma_qp_offset=-3 / threads=12 / lookahead_threads=3 / sliced_threads=0 / nr=0 / decimate=1 / interlaced=0 / bluray_compat=0 / constrained_intra=0 / bframes=12 / b_pyramid=2 / b_adapt=2 / b_bias=0 / direct=3 / weightb=1 / open_gop=0 / weightp=2 / keyint=240 / keyint_min=23 / scenecut=40 / intra_refresh=0 / rc_lookahead=60 / rc=crf / mbtree=0 / crf=15.7 / qcomp=0.60 / qpmin=0 / qpmax=69 / qpstep=4 / vbv_maxrate=62500 / vbv_bufsize=78125 / crf_max=0.0 / nal_hrd=none / filler=0 / ip_ratio=1.40 / pb_ratio=1.30 / aq=2:1.00
  37. Язык : English
  38. Default : Нет
  39. Forced : Нет
  40.  
  41. Аудио #1
  42. Идентификатор : 2
  43. Формат : DTS
  44. Формат/Информация : Digital Theater Systems
  45. Режим : 16
  46. Параметр Endianness формата : Big
  47. Идентификатор кодека : A_DTS
  48. Продолжительность : 1 ч. 46 м.
  49. Вид битрейта : Постоянный
  50. Битрейт : 768 Кбит/сек
  51. Каналы : 6 каналов
  52. Расположение каналов : Front: L C R, Side: L R, LFE
  53. Частота : 48,0 КГц
  54. Битовая глубина : 24 бит
  55. Метод сжатия : С потерями
  56. Размер потока : 583 Мбайт (7%)
  57. Заголовок : DTS 5.1 @ 768 kbps - DUB, Blu-ray EUR
  58. Язык : Russian
  59. Default : Да
  60. Forced : Нет
  61.  
  62. Аудио #2
  63. Идентификатор : 3
  64. Формат : AC-3
  65. Формат/Информация : Audio Coding 3
  66. Расширение режима : CM (complete main)
  67. Параметр Endianness формата : Big
  68. Идентификатор кодека : A_AC3
  69. Продолжительность : 1 ч. 46 м.
  70. Вид битрейта : Постоянный
  71. Битрейт : 448 Кбит/сек
  72. Каналы : 6 каналов
  73. Расположение каналов : Front: L C R, Side: L R, LFE
  74. Частота : 48,0 КГц
  75. Битовая глубина : 16 бит
  76. Метод сжатия : С потерями
  77. Размер потока : 340 Мбайт (4%)
  78. Заголовок : AC3 5.1 @ 448 kbps - DUB, Blu-ray EUR
  79. Язык : Ukrainian
  80. Default : Нет
  81. Forced : Нет
  82.  
  83. Аудио #3
  84. Идентификатор : 4
  85. Формат : DTS
  86. Формат/Информация : Digital Theater Systems
  87. Профиль формата : ES
  88. Режим : 16
  89. Параметр Endianness формата : Big
  90. Идентификатор кодека : A_DTS
  91. Продолжительность : 1 ч. 46 м.
  92. Вид битрейта : Постоянный
  93. Битрейт : 1509 Кбит/сек
  94. Каналы : 6 каналов
  95. Расположение каналов : Front: L C R, Side: L R, LFE
  96. Частота : 48,0 КГц
  97. Битовая глубина : 24 бит
  98. Метод сжатия : С потерями
  99. Задержка видео : 11 мс.
  100. Размер потока : 1,12 Гбайт (14%)
  101. Заголовок : DTS-ES @ 1536 kbps
  102. Язык : English
  103. Default : Нет
  104. Forced : Нет
  105.  
  106. Аудио #4
  107. Идентификатор : 5
  108. Формат : AC-3
  109. Формат/Информация : Audio Coding 3
  110. Расширение режима : CM (complete main)
  111. Параметр Endianness формата : Big
  112. Идентификатор кодека : A_AC3
  113. Продолжительность : 1 ч. 46 м.
  114. Вид битрейта : Постоянный
  115. Битрейт : 448 Кбит/сек
  116. Каналы : 6 каналов
  117. Расположение каналов : Front: L C R, Side: L R, LFE
  118. Частота : 48,0 КГц
  119. Битовая глубина : 16 бит
  120. Метод сжатия : С потерями
  121. Размер потока : 340 Мбайт (4%)
  122. Заголовок : AC3 5.1 @ 448 kbps - Descriptive
  123. Язык : English
  124. Default : Нет
  125. Forced : Нет
  126.  
  127. Текст #1
  128. Идентификатор : 6
  129. Формат : UTF-8
  130. Идентификатор кодека : S_TEXT/UTF8
  131. Идентификатор кодека/Информация : UTF-8 Plain Text
  132. Заголовок : Blu-ray EUR
  133. Язык : Russian
  134. Default : Нет
  135. Forced : Нет
  136.  
  137. Текст #2
  138. Идентификатор : 7
  139. Формат : UTF-8
  140. Идентификатор кодека : S_TEXT/UTF8
  141. Идентификатор кодека/Информация : UTF-8 Plain Text
  142. Заголовок : Blu-ray EUR
  143. Язык : Ukrainian
  144. Default : Нет
  145. Forced : Нет
  146.  
  147. Текст #3
  148. Идентификатор : 8
  149. Формат : UTF-8
  150. Идентификатор кодека : S_TEXT/UTF8
  151. Идентификатор кодека/Информация : UTF-8 Plain Text
  152. Заголовок : SDH-COLORED
  153. Язык : English
  154. Default : Нет
  155. Forced : Нет
  156.  
  157. Меню
  158. 00:00:00.000 : en:00:00:00.000
  159. 00:04:05.454 : en:00:04:05.454
  160. 00:06:43.069 : en:00:06:43.069
  161. 00:09:31.696 : en:00:09:31.696
  162. 00:13:53.124 : en:00:13:53.124
  163. 00:19:17.156 : en:00:19:17.156
  164. 00:20:48.038 : en:00:20:48.038
  165. 00:22:10.496 : en:00:22:10.496
  166. 00:25:30.529 : en:00:25:30.529
  167. 00:28:22.826 : en:00:28:22.826
  168. 00:30:27.534 : en:00:30:27.534
  169. 00:33:19.998 : en:00:33:19.998
  170. 00:37:01.261 : en:00:37:01.261
  171. 00:39:49.596 : en:00:39:49.596
  172. 00:45:16.380 : en:00:45:16.380
  173. 00:48:50.177 : en:00:48:50.177
  174. 00:52:42.951 : en:00:52:42.951
  175. 00:56:35.100 : en:00:56:35.100
  176. 01:00:19.866 : en:01:00:19.866
  177. 01:03:35.895 : en:01:03:35.895
  178. 01:05:40.687 : en:01:05:40.687
  179. 01:10:41.696 : en:01:10:41.696
  180. 01:12:32.181 : en:01:12:32.181
  181. 01:16:52.817 : en:01:16:52.817
  182. 01:19:39.441 : en:01:19:39.441
  183. 01:23:01.768 : en:01:23:01.768
  184. 01:25:45.807 : en:01:25:45.807
  185. 01:29:54.264 : en:01:29:54.264
  186. 01:32:47.312 : en:01:32:47.312
  187. 01:34:25.243 : en:01:34:25.243
  188. 01:36:07.971 : en:01:36:07.971
  189. 01:37:39.187 : en:01:37:39.187
Advertisement
Add Comment
Please, Sign In to add comment
Advertisement