SHARE
TWEET

Untitled

mft39anton Jun 20th, 2018 66 Never
Not a member of Pastebin yet? Sign Up, it unlocks many cool features!
  1. Disc Title:     ROCKSHOW_HDGEEK
  2. Disc Size:      45,920,935,103 bytes
  3. Protection:     AACS
  4. BD-Java:        No
  5. BDInfo:         0.7.3.3
  6.  
  7. Notes:          
  8.  
  9. BDINFO HOME:
  10.   Cinema Squid
  11.     http://www.cinemasquid.com/blu-ray/tools/bdinfo
  12.  
  13. INCLUDES FORUMS REPORT FOR:
  14.   AVS Forum Blu-ray Audio and Video Specifications Thread
  15.     http://www.avsforum.com/avs-vb/showthread.php?t=1155731
  16.  
  17.  
  18. ********************
  19. PLAYLIST: 00000.MPLS
  20. ********************
  21.  
  22. <--- BEGIN FORUMS PASTE --->
  23. [code]
  24.                                                                                                                 Total   Video                                            
  25. Title                                                           Codec   Length  Movie Size      Disc Size       Bitrate Bitrate Main Audio Track                          Secondary Audio Track
  26. -----                                                           ------  ------- --------------  --------------  ------- ------- ------------------                        ---------------------
  27. 00000.MPLS                                                      AVC     2:09:43 42,404,376,576  45,920,935,103  43.58   29.91   LPCM 2.0 4608Kbps (96kHz/24-bit)          DTS-HD Master 5.1 6858Kbps (96kHz/24-bit)
  28. [/code]
  29.  
  30. [code]
  31.  
  32. DISC INFO:
  33.  
  34. Disc Title:     ROCKSHOW_HDGEEK
  35. Disc Size:      45,920,935,103 bytes
  36. Protection:     AACS
  37. BD-Java:        No
  38. BDInfo:         0.7.3.3
  39.  
  40. PLAYLIST REPORT:
  41.  
  42. Name:                   00000.MPLS
  43. Length:                 2:09:43.734 (h:m:s.ms)
  44. Size:                   42,404,376,576 bytes
  45. Total Bitrate:          43.58 Mbps
  46.  
  47. VIDEO:
  48.  
  49. Codec                   Bitrate             Description    
  50. -----                   -------             -----------    
  51. MPEG-4 AVC Video        29908 kbps          1080p / 23.976 fps / 16:9 / High Profile 4.1
  52.  
  53. AUDIO:
  54.  
  55. Codec                           Language        Bitrate         Description    
  56. -----                           --------        -------         -----------    
  57. LPCM Audio                      English         4608 kbps       2.0 / 96 kHz / 4608 kbps / 24-bit
  58. DTS-HD Master Audio             English         6858 kbps       5.1 / 96 kHz / 6858 kbps / 24-bit (DTS Core: 6.1 / 48 kHz / 1509 kbps / 24-bit)
  59.  
  60. FILES:
  61.  
  62. Name            Time In         Length          Size            Total Bitrate  
  63. ----            -------         ------          ----            -------------  
  64. 00000.M2TS      0:00:00.000     2:09:18.292     42,397,777,920  43,719          
  65. 00010.M2TS      2:09:18.292     0:00:25.442     6,598,656       2,075          
  66.  
  67. CHAPTERS:
  68.  
  69. Number          Time In         Length          Avg Video Rate  Max 1-Sec Rate  Max 1-Sec Time  Max 5-Sec Rate  Max 5-Sec Time  Max 10Sec Rate  Max 10Sec Time  Avg Frame Size  Max Frame Size  Max Frame Time  
  70. ------          -------         ------          --------------  --------------  --------------  --------------  --------------  --------------  --------------  --------------  --------------  --------------  
  71. 1               0:00:00.000     0:10:39.430     27,441 kbps     52,519 kbps     00:01:53.029    37,375 kbps     00:09:04.835    33,468 kbps     00:04:37.068    143,053 bytes   601,540 bytes   00:01:23.666    
  72. 2               0:10:39.430     0:03:54.776     31,510 kbps     38,153 kbps     00:14:31.537    34,527 kbps     00:10:50.941    33,497 kbps     00:10:45.895    164,278 bytes   376,250 bytes   00:14:31.620    
  73. 3               0:14:34.206     0:04:31.938     32,396 kbps     35,774 kbps     00:17:19.997    34,755 kbps     00:18:33.570    34,370 kbps     00:18:30.150    168,898 bytes   294,778 bytes   00:17:19.788    
  74. 4               0:19:06.145     0:04:15.672     31,853 kbps     35,868 kbps     00:21:50.517    34,893 kbps     00:19:27.875    33,866 kbps     00:19:09.606    166,067 bytes   353,563 bytes   00:20:55.087    
  75. 5               0:23:21.817     0:05:44.093     32,291 kbps     36,081 kbps     00:25:39.162    34,605 kbps     00:27:26.978    34,101 kbps     00:28:17.570    168,351 bytes   330,364 bytes   00:25:39.412    
  76. 6               0:29:05.910     0:05:16.149     31,979 kbps     38,305 kbps     00:34:17.930    34,340 kbps     00:32:28.029    34,102 kbps     00:32:27.195    166,721 bytes   396,142 bytes   00:34:19.557    
  77. 7               0:34:22.060     0:04:14.921     29,399 kbps     40,517 kbps     00:37:45.346    39,358 kbps     00:37:44.595    37,460 kbps     00:37:43.469    153,273 bytes   553,256 bytes   00:37:29.538    
  78. 8               0:38:36.981     0:04:35.733     33,395 kbps     51,866 kbps     00:38:39.066    38,896 kbps     00:38:39.025    36,164 kbps     00:38:39.066    174,104 bytes   317,411 bytes   00:38:39.442    
  79. 9               0:43:12.715     0:04:02.825     31,918 kbps     36,316 kbps     00:46:56.021    34,872 kbps     00:45:32.646    34,275 kbps     00:45:32.771    166,405 bytes   349,306 bytes   00:46:55.813    
  80. 10              0:47:15.541     0:02:19.389     33,229 kbps     35,612 kbps     00:47:41.608    34,816 kbps     00:48:07.217    34,474 kbps     00:48:51.345    173,242 bytes   278,891 bytes   00:47:39.314    
  81. 11              0:49:34.930     0:03:00.263     33,188 kbps     35,695 kbps     00:51:19.284    34,642 kbps     00:50:09.756    34,500 kbps     00:50:08.797    173,028 bytes   299,021 bytes   00:51:19.493    
  82. 12              0:52:35.193     0:04:08.790     33,721 kbps     35,933 kbps     00:54:55.291    34,841 kbps     00:55:07.887    34,715 kbps     00:54:28.265    175,805 bytes   301,815 bytes   00:54:55.333    
  83. 13              0:56:43.983     0:02:29.566     33,888 kbps     35,250 kbps     00:57:52.177    34,916 kbps     00:56:49.447    34,783 kbps     00:56:58.081    176,677 bytes   221,100 bytes   00:58:54.030    
  84. 14              0:59:13.550     0:02:59.596     32,128 kbps     35,644 kbps     01:01:05.870    34,805 kbps     01:01:51.833    34,617 kbps     01:01:49.872    167,498 bytes   358,752 bytes   01:01:06.579    
  85. 15              1:02:13.146     0:02:27.021     33,326 kbps     35,487 kbps     01:03:38.898    34,630 kbps     01:04:02.839    34,488 kbps     01:03:58.835    173,748 bytes   277,271 bytes   01:03:10.870    
  86. 16              1:04:40.167     0:02:31.442     32,576 kbps     35,495 kbps     01:05:48.235    34,595 kbps     01:06:48.170    34,319 kbps     01:06:43.708    169,837 bytes   295,915 bytes   01:05:39.518    
  87. 17              1:07:11.610     0:03:30.501     30,071 kbps     37,773 kbps     01:08:55.464    34,416 kbps     01:07:14.030    33,227 kbps     01:07:12.695    156,778 bytes   384,163 bytes   01:08:17.802    
  88. 18              1:10:42.112     0:04:00.365     30,495 kbps     35,979 kbps     01:13:42.751    33,461 kbps     01:14:31.675    32,554 kbps     01:14:30.632    158,988 bytes   373,864 bytes   01:14:35.012    
  89. 19              1:14:42.477     0:04:27.267     30,872 kbps     35,779 kbps     01:15:17.846    34,403 kbps     01:14:57.284    34,008 kbps     01:14:52.237    160,955 bytes   320,714 bytes   01:17:24.306    
  90. 20              1:19:09.745     0:03:51.314     25,717 kbps     43,092 kbps     01:22:29.444    37,662 kbps     01:22:26.650    32,093 kbps     01:20:14.184    134,074 bytes   427,096 bytes   01:22:27.692    
  91. 21              1:23:01.059     0:04:59.841     27,332 kbps     44,087 kbps     01:26:10.415    40,378 kbps     01:26:06.578    36,302 kbps     01:26:04.450    142,495 bytes   376,809 bytes   01:26:08.746    
  92. 22              1:28:00.900     0:04:59.132     28,854 kbps     40,324 kbps     01:32:40.805    35,982 kbps     01:32:37.260    34,013 kbps     01:28:17.291    150,432 bytes   417,824 bytes   01:32:22.787    
  93. 23              1:33:00.032     0:06:19.212     31,758 kbps     47,168 kbps     01:33:04.161    39,491 kbps     01:33:02.201    37,397 kbps     01:33:00.241    165,570 bytes   481,109 bytes   01:33:00.533    
  94. 24              1:39:19.244     0:07:12.223     29,308 kbps     42,901 kbps     01:42:33.480    38,296 kbps     01:43:36.752    37,188 kbps     01:45:15.350    152,797 bytes   416,680 bytes   01:42:32.563    
  95. 25              1:46:31.468     0:04:30.186     27,316 kbps     42,936 kbps     01:46:58.495    38,696 kbps     01:46:58.495    36,588 kbps     01:50:18.945    142,414 bytes   424,003 bytes   01:49:27.185    
  96. 26              1:51:01.655     0:06:41.818     27,410 kbps     42,426 kbps     01:51:21.508    38,588 kbps     01:52:15.437    37,752 kbps     01:52:12.267    142,902 bytes   502,255 bytes   01:57:26.581    
  97. 27              1:57:43.473     0:03:51.814     29,948 kbps     45,278 kbps     01:57:54.650    37,087 kbps     01:59:41.215    34,603 kbps     01:59:41.424    156,134 bytes   394,575 bytes   01:58:36.609    
  98. 28              2:01:35.288     0:08:08.446     22,135 kbps     44,258 kbps     02:03:19.141    38,910 kbps     02:03:15.137    36,602 kbps     02:03:15.513    115,412 bytes   450,973 bytes   02:02:55.743    
  99.  
  100. STREAM DIAGNOSTICS:
  101.  
  102. File            PID             Type            Codec           Language                Seconds                 Bitrate                 Bytes           Packets        
  103. ----            ---             ----            -----           --------                --------------          --------------          -------------   -----          
  104. 00000.M2TS      4113 (0x1011)   0x1B            AVC                                     7758.167                30,000                  29,093,565,069  158,226,706    
  105. 00000.M2TS      4352 (0x1100)   0x80            LPCM            eng (English)           7758.167                4,620                   4,480,781,396   24,858,704      
  106. 00000.M2TS      4353 (0x1101)   0x86            DTS-HD MA       eng (English)           7758.167                6,881                   6,672,747,920   37,476,074      
  107. 00010.M2TS      4113 (0x1011)   0x1B            AVC                                     25.275                  1,729                   5,461,055       30,032          
  108. 00010.M2TS      4352 (0x1100)   0x80            LPCM            eng (English)           25.275                  99                      313,348         1,736          
  109. 00010.M2TS      4353 (0x1101)   0x80            LPCM            eng (English)           25.275                  99                      313,348         1,736          
  110.  
  111. [/code]
  112. <---- END FORUMS PASTE ---->
  113.  
  114. QUICK SUMMARY:
  115.  
  116. Disc Title: ROCKSHOW_HDGEEK
  117. Disc Size: 45,920,935,103 bytes
  118. Protection: AACS
  119. BD-Java: No
  120. Playlist: 00000.MPLS
  121. Size: 42,404,376,576 bytes
  122. Length: 2:09:43.734
  123. Total Bitrate: 43.58 Mbps
  124. Video: MPEG-4 AVC Video / 29908 kbps / 1080p / 23.976 fps / 16:9 / High Profile 4.1
  125. Audio: English / LPCM Audio / 2.0 / 96 kHz / 4608 kbps / 24-bit
  126. Audio: English / DTS-HD Master Audio / 5.1 / 96 kHz / 6858 kbps / 24-bit (DTS Core: 6.1 / 48 kHz / 1509 kbps / 24-bit)
  127.  
  128.  
  129. ********************
  130. PLAYLIST: 00002.MPLS
  131. ********************
  132.  
  133. <--- BEGIN FORUMS PASTE --->
  134. [code]
  135.                                                                                                                 Total   Video                                            
  136. Title                                                           Codec   Length  Movie Size      Disc Size       Bitrate Bitrate Main Audio Track                          Secondary Audio Track
  137. -----                                                           ------  ------- --------------  --------------  ------- ------- ------------------                        ---------------------
  138. 00002.MPLS                                                      AVC     0:10:06 2,563,602,432   45,920,935,103  33.81   29.97   LPCM 2.0 2304Kbps (48kHz/24-bit)          
  139. [/code]
  140.  
  141. [code]
  142.  
  143. DISC INFO:
  144.  
  145. Disc Title:     ROCKSHOW_HDGEEK
  146. Disc Size:      45,920,935,103 bytes
  147. Protection:     AACS
  148. BD-Java:        No
  149. BDInfo:         0.7.3.3
  150.  
  151. PLAYLIST REPORT:
  152.  
  153. Name:                   00002.MPLS
  154. Length:                 0:10:06.647 (h:m:s.ms)
  155. Size:                   2,563,602,432 bytes
  156. Total Bitrate:          33.81 Mbps
  157.  
  158. VIDEO:
  159.  
  160. Codec                   Bitrate             Description    
  161. -----                   -------             -----------    
  162. MPEG-4 AVC Video        29975 kbps          1080p / 23.976 fps / 16:9 / High Profile 4.1
  163.  
  164. AUDIO:
  165.  
  166. Codec                           Language        Bitrate         Description    
  167. -----                           --------        -------         -----------    
  168. LPCM Audio                      English         2304 kbps       2.0 / 48 kHz / 2304 kbps / 24-bit
  169.  
  170. FILES:
  171.  
  172. Name            Time In         Length          Size            Total Bitrate  
  173. ----            -------         ------          ----            -------------  
  174. 00005.M2TS      0:00:00.000     0:10:06.647     2,563,602,432   33,807          
  175.  
  176. CHAPTERS:
  177.  
  178. Number          Time In         Length          Avg Video Rate  Max 1-Sec Rate  Max 1-Sec Time  Max 5-Sec Rate  Max 5-Sec Time  Max 10Sec Rate  Max 10Sec Time  Avg Frame Size  Max Frame Size  Max Frame Time  
  179. ------          -------         ------          --------------  --------------  --------------  --------------  --------------  --------------  --------------  --------------  --------------  --------------  
  180. 1               0:00:00.000     0:10:06.647     29,975 kbps     45,405 kbps     00:02:51.921    38,568 kbps     00:07:02.130    36,797 kbps     00:02:50.837    156,273 bytes   441,659 bytes   00:07:07.093    
  181.  
  182. STREAM DIAGNOSTICS:
  183.  
  184. File            PID             Type            Codec           Language                Seconds                 Bitrate                 Bytes           Packets        
  185. ----            ---             ----            -----           --------                --------------          --------------          -------------   -----          
  186. 00005.M2TS      4113 (0x1011)   0x1B            AVC                                     606.564                 29,979                  2,272,995,311   12,361,796      
  187. 00005.M2TS      4352 (0x1100)   0x80            LPCM            eng (English)           606.564                 2,309                   175,076,336     969,952        
  188.  
  189. [/code]
  190. <---- END FORUMS PASTE ---->
  191.  
  192. QUICK SUMMARY:
  193.  
  194. Disc Title: ROCKSHOW_HDGEEK
  195. Disc Size: 45,920,935,103 bytes
  196. Protection: AACS
  197. BD-Java: No
  198. Playlist: 00002.MPLS
  199. Size: 2,563,602,432 bytes
  200. Length: 0:10:06.647
  201. Total Bitrate: 33.81 Mbps
  202. Video: MPEG-4 AVC Video / 29975 kbps / 1080p / 23.976 fps / 16:9 / High Profile 4.1
  203. Audio: English / LPCM Audio / 2.0 / 48 kHz / 2304 kbps / 24-bit
  204.  
  205.  
  206. ********************
  207. PLAYLIST: 00004.MPLS
  208. ********************
  209.  
  210. <--- BEGIN FORUMS PASTE --->
  211. [code]
  212.                                                                                                                 Total   Video                                            
  213. Title                                                           Codec   Length  Movie Size      Disc Size       Bitrate Bitrate Main Audio Track                          Secondary Audio Track
  214. -----                                                           ------  ------- --------------  --------------  ------- ------- ------------------                        ---------------------
  215. 00004.MPLS                                                      AVC     0:00:20 62,115,840      45,920,935,103  24.78   22.13   DTS-HD Master 5.1 1408Kbps (48kHz/16-bit)
  216. [/code]
  217.  
  218. [code]
  219.  
  220. DISC INFO:
  221.  
  222. Disc Title:     ROCKSHOW_HDGEEK
  223. Disc Size:      45,920,935,103 bytes
  224. Protection:     AACS
  225. BD-Java:        No
  226. BDInfo:         0.7.3.3
  227.  
  228. PLAYLIST REPORT:
  229.  
  230. Name:                   00004.MPLS
  231. Length:                 0:00:20.053 (h:m:s.ms)
  232. Size:                   62,115,840 bytes
  233. Total Bitrate:          24.78 Mbps
  234.  
  235. VIDEO:
  236.  
  237. Codec                   Bitrate             Description    
  238. -----                   -------             -----------    
  239. MPEG-4 AVC Video        22126 kbps          1080i / 29.970 fps / 16:9 / High Profile 4.1
  240.  
  241. AUDIO:
  242.  
  243. Codec                           Language        Bitrate         Description    
  244. -----                           --------        -------         -----------    
  245. DTS-HD Master Audio             English         1408 kbps       5.1 / 48 kHz / 1408 kbps / 16-bit (DTS Core: 5.1 / 48 kHz / 768 kbps / 16-bit)
  246.  
  247. FILES:
  248.  
  249. Name            Time In         Length          Size            Total Bitrate  
  250. ----            -------         ------          ----            -------------  
  251. 00007.M2TS      0:00:00.000     0:00:20.053     62,115,840      24,780          
  252.  
  253. CHAPTERS:
  254.  
  255. Number          Time In         Length          Avg Video Rate  Max 1-Sec Rate  Max 1-Sec Time  Max 5-Sec Rate  Max 5-Sec Time  Max 10Sec Rate  Max 10Sec Time  Avg Frame Size  Max Frame Size  Max Frame Time  
  256. ------          -------         ------          --------------  --------------  --------------  --------------  --------------  --------------  --------------  --------------  --------------  --------------  
  257. 1               0:00:00.000     0:00:20.053     22,126 kbps     52,645 kbps     00:00:06.005    39,888 kbps     00:00:04.671    37,346 kbps     00:00:04.904    92,283 bytes    592,215 bytes   00:00:08.308    
  258.  
  259. STREAM DIAGNOSTICS:
  260.  
  261. File            PID             Type            Codec           Language                Seconds                 Bitrate                 Bytes           Packets        
  262. ----            ---             ----            -----           --------                --------------          --------------          -------------   -----          
  263. 00007.M2TS      4113 (0x1011)   0x1B            AVC                                     19.953                  22,237                  55,462,199      301,754        
  264. 00007.M2TS      4352 (0x1100)   0x86            DTS-HD MA       eng (English)           19.953                  1,415                   3,529,376       21,076          
  265.  
  266. [/code]
  267. <---- END FORUMS PASTE ---->
  268.  
  269. QUICK SUMMARY:
  270.  
  271. Disc Title: ROCKSHOW_HDGEEK
  272. Disc Size: 45,920,935,103 bytes
  273. Protection: AACS
  274. BD-Java: No
  275. Playlist: 00004.MPLS
  276. Size: 62,115,840 bytes
  277. Length: 0:00:20.053
  278. Total Bitrate: 24.78 Mbps
  279. Video: MPEG-4 AVC Video / 22126 kbps / 1080i / 29.970 fps / 16:9 / High Profile 4.1
  280. Audio: English / DTS-HD Master Audio / 5.1 / 48 kHz / 1408 kbps / 16-bit (DTS Core: 5.1 / 48 kHz / 768 kbps / 16-bit)
  281.  
  282.  
  283. ********************
  284. PLAYLIST: 00006.MPLS
  285. ********************
  286.  
  287. <--- BEGIN FORUMS PASTE --->
  288. [code]
  289.                                                                                                                 Total   Video                                            
  290. Title                                                           Codec   Length  Movie Size      Disc Size       Bitrate Bitrate Main Audio Track                          Secondary Audio Track
  291. -----                                                           ------  ------- --------------  --------------  ------- ------- ------------------                        ---------------------
  292. 00006.MPLS                                                      AVC     0:00:20 1,191,936       45,920,935,103  0.48    0.39                                              
  293. [/code]
  294.  
  295. [code]
  296.  
  297. DISC INFO:
  298.  
  299. Disc Title:     ROCKSHOW_HDGEEK
  300. Disc Size:      45,920,935,103 bytes
  301. Protection:     AACS
  302. BD-Java:        No
  303. BDInfo:         0.7.3.3
  304.  
  305. PLAYLIST REPORT:
  306.  
  307. Name:                   00006.MPLS
  308. Length:                 0:00:20.019 (h:m:s.ms)
  309. Size:                   1,191,936 bytes
  310. Total Bitrate:          0.48 Mbps
  311.  
  312. VIDEO:
  313.  
  314. Codec                   Bitrate             Description    
  315. -----                   -------             -----------    
  316. MPEG-4 AVC Video        394 kbps            1080p / 23.976 fps / 16:9 / High Profile 4.1
  317.  
  318. FILES:
  319.  
  320. Name            Time In         Length          Size            Total Bitrate  
  321. ----            -------         ------          ----            -------------  
  322. 00009.M2TS      0:00:00.000     0:00:10.009     417,792         334            
  323. 00011.M2TS      0:00:10.009     0:00:10.009     774,144         619            
  324.  
  325. CHAPTERS:
  326.  
  327. Number          Time In         Length          Avg Video Rate  Max 1-Sec Rate  Max 1-Sec Time  Max 5-Sec Rate  Max 5-Sec Time  Max 10Sec Rate  Max 10Sec Time  Avg Frame Size  Max Frame Size  Max Frame Time  
  328. ------          -------         ------          --------------  --------------  --------------  --------------  --------------  --------------  --------------  --------------  --------------  --------------  
  329. 1               0:00:00.000     0:00:20.019     394 kbps        826 kbps        00:00:10.510    573 kbps        00:00:09.718    530 kbps        00:00:09.968    2,054 bytes     40,088 bytes    00:00:18.268    
  330.  
  331. STREAM DIAGNOSTICS:
  332.  
  333. File            PID             Type            Codec           Language                Seconds                 Bitrate                 Bytes           Packets        
  334. ----            ---             ----            -----           --------                --------------          --------------          -------------   -----          
  335. 00009.M2TS      4113 (0x1011)   0x1B            AVC                                     9.885                   261                     322,951         1,829          
  336. 00011.M2TS      4113 (0x1011)   0x1B            AVC                                     9.885                   536                     662,753         3,685          
  337.  
  338. [/code]
  339. <---- END FORUMS PASTE ---->
  340.  
  341. QUICK SUMMARY:
  342.  
  343. Disc Title: ROCKSHOW_HDGEEK
  344. Disc Size: 45,920,935,103 bytes
  345. Protection: AACS
  346. BD-Java: No
  347. Playlist: 00006.MPLS
  348. Size: 1,191,936 bytes
  349. Length: 0:00:20.019
  350. Total Bitrate: 0.48 Mbps
  351. Video: MPEG-4 AVC Video / 394 kbps / 1080p / 23.976 fps / 16:9 / High Profile 4.1
RAW Paste Data
We use cookies for various purposes including analytics. By continuing to use Pastebin, you agree to our use of cookies as described in the Cookies Policy. OK, I Understand
 
Top