Secasa

memoria

Sep 16th, 2014
233
Never
Not a member of Pastebin yet? Sign Up, it unlocks many cool features!
  1. Format : Matroska
  2. Format version : Version 4 / Version 2
  3. File size : 3.47 GiB
  4. Duration : 1h 34mn
  5. Overall bit rate : 5 267 Kbps
  6. Encoded date : UTC 2014-09-16 08:21:59
  7. Writing application : mkvmerge v7.2.0 ('On Every Street') 64bit built on Sep 13 2014 15:52:10
  8. Writing library : libebml v1.3.0 + libmatroska v1.4.1
  9. DURATION : 01:29:23.019000000
  10. NUMBER_OF_FRAMES : 1098
  11. NUMBER_OF_BYTES : 31475
  12. _STATISTICS_WRITING_APP : mkvmerge v7.2.0 ('On Every Street') 64bit built on Sep 13 2014 15:52:10
  13. _STATISTICS_WRITING_DATE_UTC : 2014-09-16 08:21:59
  14. _STATISTICS_TAGS : BPS DURATION NUMBER_OF_FRAMES NUMBER_OF_BYTES
  15.  
  16. Video
  17. ID : 1
  18. Format : AVC
  19. Format/Info : Advanced Video Codec
  20. Format profile : High@L4.1
  21. Format settings, CABAC : Yes
  22. Format settings, ReFrames : 4 frames
  23. Codec ID : V_MPEG4/ISO/AVC
  24. Duration : 1h 34mn
  25. Bit rate : 4 499 Kbps
  26. Width : 1 920 pixels
  27. Height : 840 pixels
  28. Display aspect ratio : 2.25:1
  29. Frame rate mode : Constant
  30. Frame rate : 23.976 fps
  31. Color space : YUV
  32. Chroma subsampling : 4:2:0
  33. Bit depth : 8 bits
  34. Scan type : Progressive
  35. Bits/(Pixel*Frame) : 0.116
  36. Stream size : 2.90 GiB (83%)
  37. Title : La memoria de los muertos.2004.HDTV.m1080p.x264.AC3.Dual
  38. Writing library : x264 core 116 r2074 2641b9e
  39. Encoding settings : cabac=1 / ref=4 / deblock=1:-1:-1 / analyse=0x3:0x113 / me=umh / subme=7 / psy=1 / psy_rd=1.00:0.00 / mixed_ref=1 / me_range=24 / chroma_me=1 / trellis=2 / 8x8dct=1 / cqm=0 / deadzone=21,11 / fast_pskip=1 / chroma_qp_offset=-2 / threads=9 / sliced_threads=0 / nr=0 / decimate=1 / interlaced=0 / bluray_compat=0 / constrained_intra=0 / bframes=3 / b_pyramid=2 / b_adapt=2 / b_bias=0 / direct=3 / weightb=1 / open_gop=0 / weightp=2 / keyint=250 / keyint_min=23 / scenecut=40 / intra_refresh=0 / rc_lookahead=40 / rc=2pass / mbtree=1 / bitrate=4499 / ratetol=1.0 / qcomp=0.60 / qpmin=10 / qpmax=51 / qpstep=4 / cplxblur=20.0 / qblur=0.5 / vbv_maxrate=50000 / vbv_bufsize=50000 / nal_hrd=none / ip_ratio=1.40 / aq=1:1.00
  40. Default : Yes
  41. Forced : No
  42.  
  43. Audio #1
  44. ID : 2
  45. Format : AC-3
  46. Format/Info : Audio Coding 3
  47. Mode extension : CM (complete main)
  48. Format settings, Endianness : Big
  49. Codec ID : A_AC3
  50. Duration : 1h 34mn
  51. Bit rate mode : Constant
  52. Bit rate : 384 Kbps
  53. Channel(s) : 6 channels
  54. Channel positions : Front: L C R, Side: L R, LFE
  55. Sampling rate : 48.0 KHz
  56. Bit depth : 16 bits
  57. Compression mode : Lossy
  58. Stream size : 259 MiB (7%)
  59. Language : Spanish
  60. Default : Yes
  61. Forced : Yes
  62.  
  63. Audio #2
  64. ID : 3
  65. Format : AC-3
  66. Format/Info : Audio Coding 3
  67. Mode extension : CM (complete main)
  68. Format settings, Endianness : Big
  69. Codec ID : A_AC3
  70. Duration : 1h 34mn
  71. Bit rate mode : Constant
  72. Bit rate : 384 Kbps
  73. Channel(s) : 6 channels
  74. Channel positions : Front: L C R, Side: L R, LFE
  75. Sampling rate : 48.0 KHz
  76. Bit depth : 16 bits
  77. Compression mode : Lossy
  78. Stream size : 259 MiB (7%)
  79. Language : English
  80. Default : No
  81. Forced : No
  82.  
  83. Text #1
  84. ID : 4
  85. Format : UTF-8
  86. Codec ID : S_TEXT/UTF8
  87. Codec ID/Info : UTF-8 Plain Text
  88. Title : Forzados
  89. Language : Spanish
  90. Default : Yes
  91. Forced : Yes
  92.  
  93. Text #2
  94. ID : 5
  95. Format : UTF-8
  96. Codec ID : S_TEXT/UTF8
  97. Codec ID/Info : UTF-8 Plain Text
  98. Language : Spanish
  99. Default : No
  100. Forced : No
  101.  
  102. Text #3
  103. ID : 6
  104. Format : UTF-8
  105. Codec ID : S_TEXT/UTF8
  106. Codec ID/Info : UTF-8 Plain Text
  107. Title : Ingles
  108. Default : No
  109. Forced : No
RAW Paste Data