SHARE
TWEET

Harry Potter 8-Film Collection 1080p hin eng Jitu

langamansha Jan 19th, 2020 143 Never
Not a member of Pastebin yet? Sign Up, it unlocks many cool features!
  1. General
  2. Unique ID                                : 173916288130856680216511002751859636321 (0x82D70F07CD26E2A141456E185D373861)
  3. Complete name                            : 1. Harry Potter and the Sorcerer's Stone (2001) Ult.Extended 1080p 10bit Bluray x265 HEVC [Org DD 2.0 Hindi + DD 5.1 Eng] ESubs ~ Jitu.mkv
  4. Format                                   : Matroska
  5. Format version                           : Version 4
  6. File size                                : 2.75 GiB
  7. Duration                                 : 2 h 38 min
  8. Overall bit rate                         : 2 480 kb/s
  9. Movie name                               : Harry Potter and the Sorcerer's Stone (2001) Ult.Extended 1080p 10bit Bluray x265 HEVC [Org DD 2.0 Hindi + DD 5.1 Eng] ESubs ~ Jitu
  10. Encoded date                             : UTC 2018-07-22 15:11:59
  11. Writing application                      : mkvmerge v25.0.0 ('Prog Noir') 64-bit
  12. Writing library                          : libebml v1.3.6 + libmatroska v1.4.9
  13.  
  14. Video
  15. ID                                       : 1
  16. Format                                   : HEVC
  17. Format/Info                              : High Efficiency Video Coding
  18. Format profile                           : Main 10@L4@Main
  19. Codec ID                                 : V_MPEGH/ISO/HEVC
  20. Duration                                 : 2 h 38 min
  21. Bit rate                                 : 2 025 kb/s
  22. Width                                    : 1 920 pixels
  23. Height                                   : 800 pixels
  24. Display aspect ratio                     : 2.40:1
  25. Frame rate mode                          : Constant
  26. Frame rate                               : 23.976 (24000/1001) FPS
  27. Color space                              : YUV
  28. Chroma subsampling                       : 4:2:0
  29. Bit depth                                : 10 bits
  30. Bits/(Pixel*Frame)                       : 0.055
  31. Stream size                              : 2.25 GiB (82%)
  32. Writing library                          : x265 1.9+140-34a3d35c5f97:[Windows][GCC 5.3.0][64 bit] 10bit
  33. Encoding settings                        : wpp / ctu=64 / min-cu-size=8 / max-tu-size=32 / tu-intra-depth=1 / tu-inter-depth=1 / me=1 / subme=2 / merange=57 / no-rect / no-amp / max-merge=2 / temporal-mvp / no-early-skip / rdpenalty=0 / no-tskip / no-tskip-fast / strong-intra-smoothing / no-lossless / no-cu-lossless / no-constrained-intra / no-fast-intra / open-gop / no-temporal-layers / interlace=0 / keyint=250 / min-keyint=23 / scenecut=40 / rc-lookahead=20 / lookahead-slices=5 / bframes=4 / bframe-bias=0 / b-adapt=2 / ref=3 / limit-refs=3 / no-limit-modes / weightp / no-weightb / aq-mode=1 / qg-size=32 / aq-strength=1.00 / cbqpoffs=0 / crqpoffs=0 / rd=3 / psy-rd=2.00 / rdoq-level=0 / psy-rdoq=0.00 / no-rd-refine / signhide / deblock=0:0 / sao / no-sao-non-deblock / b-pyramid / cutree / no-intra-refresh / rc=2 / pass / bitrate=2025 / qcomp=0.60 / qpmin=0 / qpmax=51 / qpstep=4 / cplxblur=20.0 / qblur=0.5 / ipratio=1.40 / pbratio=1.30
  34. Default                                  : Yes
  35. Forced                                   : No
  36.  
  37. Audio #1
  38. ID                                       : 2
  39. Format                                   : AC-3
  40. Format/Info                              : Audio Coding 3
  41. Commercial name                          : Dolby Digital
  42. Codec ID                                 : A_AC3
  43. Duration                                 : 2 h 38 min
  44. Bit rate mode                            : Constant
  45. Bit rate                                 : 224 kb/s
  46. Channel(s)                               : 2 channels
  47. Channel layout                           : L R
  48. Sampling rate                            : 48.0 kHz
  49. Frame rate                               : 31.250 FPS (1536 SPF)
  50. Bit depth                                : 16 bits
  51. Compression mode                         : Lossy
  52. Stream size                              : 254 MiB (9%)
  53. Title                                    : Org DD 2.0 224Kbps ~ Jitu
  54. Language                                 : Hindi
  55. Service kind                             : Complete Main
  56. Default                                  : Yes
  57. Forced                                   : Yes
  58.  
  59. Audio #2
  60. ID                                       : 3
  61. Format                                   : AC-3
  62. Format/Info                              : Audio Coding 3
  63. Commercial name                          : Dolby Digital
  64. Codec ID                                 : A_AC3
  65. Duration                                 : 2 h 38 min
  66. Bit rate mode                            : Constant
  67. Bit rate                                 : 224 kb/s
  68. Channel(s)                               : 6 channels
  69. Channel layout                           : L R C LFE Ls Rs
  70. Sampling rate                            : 48.0 kHz
  71. Frame rate                               : 31.250 FPS (1536 SPF)
  72. Bit depth                                : 16 bits
  73. Compression mode                         : Lossy
  74. Stream size                              : 254 MiB (9%)
  75. Language                                 : English
  76. Service kind                             : Complete Main
  77. Default                                  : No
  78. Forced                                   : No
  79.  
  80. Text
  81. ID                                       : 4
  82. Format                                   : VobSub
  83. Muxing mode                              : zlib
  84. Codec ID                                 : S_VOBSUB
  85. Codec ID/Info                            : Picture based subtitle format used on DVDs
  86. Duration                                 : 2 h 37 min
  87. Bit rate                                 : 7 614 b/s
  88. Count of elements                        : 1389
  89. Stream size                              : 8.57 MiB (0%)
  90. Title                                    : Eng PGS
  91. Language                                 : English
  92. Default                                  : Yes
  93. Forced                                   : Yes
  94.  
  95. Menu
  96. 00:00:00.000                             : en:Doorstep Delivery
  97. 00:04:05.412                             : en:Vanishing Glass
  98. 00:08:11.449                             : en:Letters From No One
  99. 00:13:41.821                             : en:Keeper of the Keys
  100. 00:19:49.188                             : en:Diagon Alley
  101. 00:23:42.296                             : en:Gringotts
  102. 00:26:40.307                             : en:Ollivanders
  103. 00:30:48.138                             : en:The Boy Who Lived
  104. 00:33:03.857                             : en:Platform 9 3/4
  105. 00:36:04.204                             : en:Ron and Hermione
  106. 00:39:48.261                             : en:Welcome to Hogwarts
  107. 00:43:28.105                             : en:Sorting Hat
  108. 00:48:12.097                             : en:Nick and Other Residents
  109. 00:52:27.686                             : en:Potions and Parcels
  110. 00:58:29.381                             : en:New Seeker
  111. 01:04:20.607                             : en:Three-Headed Sentinel
  112. 01:07:08.942                             : en:Facts and Feathers
  113. 01:11:13.186                             : en:Mountain Troll
  114. 01:17:30.604                             : en:Quidditch
  115. 01:23:59.242                             : en:Interference Overcome
  116. 01:27:35.917                             : en:Christmas Gift
  117. 01:32:13.820                             : en:Cloaked in Darkness
  118. 01:35:25.011                             : en:Mirror of Erised
  119. 01:41:18.155                             : en:Norbert
  120. 01:49:04.079                             : en:Forbidden Forest
  121. 01:55:34.177                             : en:Up to Something
  122. 01:59:50.725                             : en:Through the Trapdoor
  123. 02:04:38.888                             : en:Wizards' Chess
  124. 02:10:13.973                             : en:Sacrifice Play
  125. 02:13:25.289                             : en:Man with Two Faces
  126. 02:17:24.528                             : en:Magic Touch
  127. 02:20:47.981                             : en:Mark of Love
  128. 02:23:58.755                             : en:House Cup Winner
  129. 02:28:13.843                             : en:Not Really Going Home
  130. 02:30:41.699                             : en:Credits
  131.  
  132. =======================================================================================================================================
  133.  
  134. General
  135. Unique ID                                : 276541181047971451368352889613718808843 (0xD00BE4E69926C0BB99B569953D42690B)
  136. Complete name                            : 2. Harry Potter and the Chamber of Secrets (2002) Ult.Extended 1080p 10bit Bluray x265 HEVC [Org DD 2.0 Hindi + DD 5.1 Eng] ESubs ~ Jitu.mkv
  137. Format                                   : Matroska
  138. Format version                           : Version 4
  139. File size                                : 3.03 GiB
  140. Duration                                 : 2 h 54 min
  141. Overall bit rate                         : 2 484 kb/s
  142. Movie name                               : Harry Potter and the Chamber of Secrets (2002) Ult.Extended 1080p 10bit Bluray x265 HEVC [Org DD 2.0 Hindi + DD 5.1 Eng] ESubs ~ Jitu
  143. Encoded date                             : UTC 2018-07-22 15:31:04
  144. Writing application                      : mkvmerge v25.0.0 ('Prog Noir') 64-bit
  145. Writing library                          : libebml v1.3.6 + libmatroska v1.4.9
  146.  
  147. Video
  148. ID                                       : 1
  149. Format                                   : HEVC
  150. Format/Info                              : High Efficiency Video Coding
  151. Format profile                           : Main 10@L4@Main
  152. Codec ID                                 : V_MPEGH/ISO/HEVC
  153. Duration                                 : 2 h 54 min
  154. Bit rate                                 : 2 029 kb/s
  155. Width                                    : 1 920 pixels
  156. Height                                   : 800 pixels
  157. Display aspect ratio                     : 2.40:1
  158. Frame rate mode                          : Constant
  159. Frame rate                               : 23.976 (24000/1001) FPS
  160. Color space                              : YUV
  161. Chroma subsampling                       : 4:2:0
  162. Bit depth                                : 10 bits
  163. Bits/(Pixel*Frame)                       : 0.055
  164. Stream size                              : 2.47 GiB (82%)
  165. Writing library                          : x265 1.9+140-34a3d35c5f97:[Windows][GCC 5.3.0][64 bit] 10bit
  166. Encoding settings                        : wpp / ctu=64 / min-cu-size=8 / max-tu-size=32 / tu-intra-depth=1 / tu-inter-depth=1 / me=1 / subme=2 / merange=57 / no-rect / no-amp / max-merge=2 / temporal-mvp / no-early-skip / rdpenalty=0 / no-tskip / no-tskip-fast / strong-intra-smoothing / no-lossless / no-cu-lossless / no-constrained-intra / no-fast-intra / open-gop / no-temporal-layers / interlace=0 / keyint=250 / min-keyint=23 / scenecut=40 / rc-lookahead=20 / lookahead-slices=5 / bframes=4 / bframe-bias=0 / b-adapt=2 / ref=3 / limit-refs=3 / no-limit-modes / weightp / no-weightb / aq-mode=1 / qg-size=32 / aq-strength=1.00 / cbqpoffs=0 / crqpoffs=0 / rd=3 / psy-rd=2.00 / rdoq-level=0 / psy-rdoq=0.00 / no-rd-refine / signhide / deblock=0:0 / sao / no-sao-non-deblock / b-pyramid / cutree / no-intra-refresh / rc=2 / pass / bitrate=2028 / qcomp=0.60 / qpmin=0 / qpmax=51 / qpstep=4 / cplxblur=20.0 / qblur=0.5 / ipratio=1.40 / pbratio=1.30
  167. Default                                  : Yes
  168. Forced                                   : No
  169.  
  170. Audio #1
  171. ID                                       : 2
  172. Format                                   : AC-3
  173. Format/Info                              : Audio Coding 3
  174. Commercial name                          : Dolby Digital
  175. Codec ID                                 : A_AC3
  176. Duration                                 : 2 h 54 min
  177. Bit rate mode                            : Constant
  178. Bit rate                                 : 224 kb/s
  179. Channel(s)                               : 2 channels
  180. Channel layout                           : L R
  181. Sampling rate                            : 48.0 kHz
  182. Frame rate                               : 31.250 FPS (1536 SPF)
  183. Bit depth                                : 16 bits
  184. Compression mode                         : Lossy
  185. Stream size                              : 279 MiB (9%)
  186. Title                                    : Org DD 2.0 224Kbps ~ Jitu
  187. Language                                 : Hindi
  188. Service kind                             : Complete Main
  189. Default                                  : Yes
  190. Forced                                   : Yes
  191.  
  192. Audio #2
  193. ID                                       : 3
  194. Format                                   : AC-3
  195. Format/Info                              : Audio Coding 3
  196. Commercial name                          : Dolby Digital
  197. Codec ID                                 : A_AC3
  198. Duration                                 : 2 h 54 min
  199. Bit rate mode                            : Constant
  200. Bit rate                                 : 224 kb/s
  201. Channel(s)                               : 6 channels
  202. Channel layout                           : L R C LFE Ls Rs
  203. Sampling rate                            : 48.0 kHz
  204. Frame rate                               : 31.250 FPS (1536 SPF)
  205. Bit depth                                : 16 bits
  206. Compression mode                         : Lossy
  207. Stream size                              : 279 MiB (9%)
  208. Language                                 : English
  209. Service kind                             : Complete Main
  210. Default                                  : No
  211. Forced                                   : No
  212.  
  213. Text
  214. ID                                       : 4
  215. Format                                   : VobSub
  216. Muxing mode                              : zlib
  217. Codec ID                                 : S_VOBSUB
  218. Codec ID/Info                            : Picture based subtitle format used on DVDs
  219. Duration                                 : 2 h 53 min
  220. Bit rate                                 : 8 900 b/s
  221. Count of elements                        : 1747
  222. Stream size                              : 11.0 MiB (0%)
  223. Title                                    : Eng PGS
  224. Language                                 : English
  225. Default                                  : Yes
  226. Forced                                   : Yes
  227.  
  228. Menu
  229. 00:00:00.000                             : en:In a Cage
  230. 00:03:00.972                             : en:Dobby's Warning
  231. 00:08:37.016                             : en:Car Rescue
  232. 00:11:31.024                             : en:The Burrow
  233. 00:14:48.554                             : en:To Diagon Aley
  234. 00:21:20.070                             : en:Flourish and Blotts
  235. 00:25:38.454                             : en:Flying to Hogwarts
  236. 00:29:31.520                             : en:Whomping Willow
  237. 00:32:32.242                             : en:Not Expelled...Today
  238. 00:35:25.290                             : en:Mandrakes; Ron's Howler
  239. 00:39:50.805                             : en:Gilderoy Lockhart
  240. 00:43:52.546                             : en:Mudbloods and Murmurs
  241. 00:48:40.125                             : en:Writing on the Wall
  242. 00:54:08.287                             : en:About the Chamber
  243. 00:58:08.276                             : en:Rogue Bludger
  244. 01:04:08.595                             : en:No Longer Safe
  245. 01:09:25.495                             : en:Dueling Club
  246. 01:14:12.740                             : en:A Parselmouth
  247. 01:20:33.078                             : en:Nothing to Tell
  248. 01:25:59.321                             : en:Polyjuice Potion
  249. 01:31:56.886                             : en:Harry and Ron Transformed
  250. 01:36:22.485                             : en:The Diary
  251. 01:41:54.984                             : en:Tom Riddle
  252. 01:46:02.815                             : en:Petrified
  253. 01:50:33.377                             : en:Cornelius Fudge
  254. 01:55:39.557                             : en:Aragog
  255. 02:00:30.473                             : en:Spider Attack
  256. 02:04:36.844                             : en:Missing
  257. 02:08:55.060                             : en:Chamber of Secrets
  258. 02:14:22.137                             : en:Backfire
  259. 02:17:38.625                             : en:Heir of Slytherin
  260. 02:23:01.156                             : en:The Basilisk
  261. 02:28:01.289                             : en:Healing Powers
  262. 02:31:34.794                             : en:Out of the Hat
  263. 02:34:49.071                             : en:Dobby's Reward
  264. 02:40:04.303                             : en:Welcome Back
  265. 02:45:11.944                             : en:End Credits
  266.  
  267. =======================================================================================================================================
  268. General
  269. Unique ID                                : 307923019376813921999555623947162334652 (0xE7A7D0FCDD1AC0039BAEEAB7312BB5BC)
  270. Complete name                            : 3. Harry Potter and the Prisoner of Azkaban (2004) 1080p 10bit Bluray x265 HEVC [Org DD 2.0 Hindi + DD 5.1 Eng] ESubs ~ Jitu.mkv
  271. Format                                   : Matroska
  272. Format version                           : Version 4
  273. File size                                : 2.91 GiB
  274. Duration                                 : 2 h 21 min
  275. Overall bit rate                         : 2 941 kb/s
  276. Movie name                               : Harry Potter and the Prisoner of Azkaban (2004) 1080p 10bit Bluray x265 HEVC [Org DD 2.0 Hindi + DD 5.1 Eng] ESubs ~ Jitu
  277. Encoded date                             : UTC 2018-07-23 09:41:08
  278. Writing application                      : mkvmerge v25.0.0 ('Prog Noir') 64-bit
  279. Writing library                          : libebml v1.3.6 + libmatroska v1.4.9
  280.  
  281. Video
  282. ID                                       : 1
  283. Format                                   : HEVC
  284. Format/Info                              : High Efficiency Video Coding
  285. Format profile                           : Main 10@L4@Main
  286. Codec ID                                 : V_MPEGH/ISO/HEVC
  287. Duration                                 : 2 h 21 min
  288. Bit rate                                 : 2 472 kb/s
  289. Width                                    : 1 920 pixels
  290. Height                                   : 800 pixels
  291. Display aspect ratio                     : 2.40:1
  292. Frame rate mode                          : Constant
  293. Frame rate                               : 23.976 (24000/1001) FPS
  294. Color space                              : YUV
  295. Chroma subsampling                       : 4:2:0
  296. Bit depth                                : 10 bits
  297. Bits/(Pixel*Frame)                       : 0.067
  298. Stream size                              : 2.45 GiB (84%)
  299. Writing library                          : x265 1.9+140-34a3d35c5f97:[Windows][GCC 5.3.0][64 bit] 10bit
  300. Encoding settings                        : wpp / ctu=64 / min-cu-size=8 / max-tu-size=32 / tu-intra-depth=1 / tu-inter-depth=1 / me=1 / subme=2 / merange=57 / no-rect / no-amp / max-merge=2 / temporal-mvp / no-early-skip / rdpenalty=0 / no-tskip / no-tskip-fast / strong-intra-smoothing / no-lossless / no-cu-lossless / no-constrained-intra / no-fast-intra / open-gop / no-temporal-layers / interlace=0 / keyint=250 / min-keyint=23 / scenecut=40 / rc-lookahead=20 / lookahead-slices=5 / bframes=4 / bframe-bias=0 / b-adapt=2 / ref=3 / limit-refs=3 / no-limit-modes / weightp / no-weightb / aq-mode=1 / qg-size=32 / aq-strength=1.00 / cbqpoffs=0 / crqpoffs=0 / rd=3 / psy-rd=2.00 / rdoq-level=0 / psy-rdoq=0.00 / no-rd-refine / signhide / deblock=0:0 / sao / no-sao-non-deblock / b-pyramid / cutree / no-intra-refresh / rc=2 / pass / bitrate=2472 / qcomp=0.60 / qpmin=0 / qpmax=51 / qpstep=4 / cplxblur=20.0 / qblur=0.5 / ipratio=1.40 / pbratio=1.30
  301. Default                                  : Yes
  302. Forced                                   : No
  303.  
  304. Audio #1
  305. ID                                       : 2
  306. Format                                   : AC-3
  307. Format/Info                              : Audio Coding 3
  308. Commercial name                          : Dolby Digital
  309. Codec ID                                 : A_AC3
  310. Duration                                 : 2 h 21 min
  311. Bit rate mode                            : Constant
  312. Bit rate                                 : 224 kb/s
  313. Channel(s)                               : 2 channels
  314. Channel layout                           : L R
  315. Sampling rate                            : 48.0 kHz
  316. Frame rate                               : 31.250 FPS (1536 SPF)
  317. Bit depth                                : 16 bits
  318. Compression mode                         : Lossy
  319. Delay relative to video                  : 2 s 700 ms
  320. Stream size                              : 227 MiB (8%)
  321. Title                                    : Org DD 2.0 224Kbps ~ Jitu
  322. Language                                 : Hindi
  323. Service kind                             : Complete Main
  324. Default                                  : Yes
  325. Forced                                   : Yes
  326.  
  327. Audio #2
  328. ID                                       : 3
  329. Format                                   : AC-3
  330. Format/Info                              : Audio Coding 3
  331. Commercial name                          : Dolby Digital
  332. Codec ID                                 : A_AC3
  333. Duration                                 : 2 h 21 min
  334. Bit rate mode                            : Constant
  335. Bit rate                                 : 224 kb/s
  336. Channel(s)                               : 6 channels
  337. Channel layout                           : L R C LFE Ls Rs
  338. Sampling rate                            : 48.0 kHz
  339. Frame rate                               : 31.250 FPS (1536 SPF)
  340. Bit depth                                : 16 bits
  341. Compression mode                         : Lossy
  342. Stream size                              : 227 MiB (8%)
  343. Language                                 : English
  344. Service kind                             : Complete Main
  345. Default                                  : No
  346. Forced                                   : No
  347.  
  348. Text #1
  349. ID                                       : 4
  350. Format                                   : PGS
  351. Muxing mode                              : zlib
  352. Codec ID                                 : S_HDMV/PGS
  353. Codec ID/Info                            : Picture based subtitle format used on BDs/HD-DVDs
  354. Duration                                 : 2 h 21 min
  355. Bit rate                                 : 30.2 kb/s
  356. Count of elements                        : 3250
  357. Stream size                              : 30.5 MiB (1%)
  358. Title                                    : Eng PGS
  359. Language                                 : English
  360. Default                                  : Yes
  361. Forced                                   : Yes
  362.  
  363. Text #2
  364. ID                                       : 5
  365. Format                                   : VobSub
  366. Muxing mode                              : zlib
  367. Codec ID                                 : S_VOBSUB
  368. Codec ID/Info                            : Picture based subtitle format used on DVDs
  369. Duration                                 : 2 h 20 min
  370. Bit rate                                 : 9 866 b/s
  371. Count of elements                        : 1616
  372. Stream size                              : 9.93 MiB (0%)
  373. Title                                    : Eng PGS SDH
  374. Language                                 : English
  375. Default                                  : No
  376. Forced                                   : No
  377.  
  378. Menu
  379. 00:00:00.000                             : en:Under Covers Prologue
  380. 00:01:40.100                             : en:Aunt Marge's Big Mistake
  381. 00:06:36.229                             : en:The Knight Bus
  382. 00:12:45.932                             : en:The Leaky Cauldron
  383. 00:14:52.517                             : en:The Monster Book of Monsters
  384. 00:16:12.513                             : en:In Grave Danger
  385. 00:18:56.218                             : en:The Dementor
  386. 00:23:50.387                             : en:Welcome and Warning
  387. 00:28:50.729                             : en:Tea Leaves
  388. 00:31:21.838                             : en:Backbeak
  389. 00:38:50.161                             : en:Boggart in the Wardrobe
  390. 00:44:45.308                             : en:Talent for Trouble
  391. 00:47:37.813                             : en:Flight of the Fat Lady
  392. 00:49:39.935                             : en:Substitute Teacher
  393. 00:53:42.845                             : en:Grim Defeat
  394. 00:57:28.403                             : en:The Marauder's Map
  395. 01:01:23.722                             : en:Who's There?
  396. 01:03:22.924                             : en:I Hope He Finds Me
  397. 01:07:10.985                             : en:The Patronus
  398. 01:11:53.476                             : en:Seeing the Impossible
  399. 01:19:10.079                             : en:Professor Trelarney's Prediction
  400. 01:22:29.945                             : en:Witness to an Execution
  401. 01:27:30.871                             : en:The Whomping Willow
  402. 01:30:13.366                             : en:Sirius Black
  403. 01:34:19.028                             : en:Peter Pettigrew
  404. 01:36:56.894                             : en:Friends Become Foes
  405. 01:42:24.472                             : en:The Dementor's Kiss
  406. 01:45:40.334                             : en:Hermione's Secret
  407. 01:50:03.597                             : en:Onlookers to the Rescue
  408. 01:55:33.343                             : en:Saving Lives
  409. 02:00:07.409                             : en:Truly Seen, Truly Free
  410. 02:03:16.055                             : en:Two Places at Once
  411. 02:06:02.513                             : en:Mischief Managed
  412. 02:08:42.924                             : en:The Firebolt
  413. 02:09:47.405                             : en:End Credits Map
  414.  
  415.  
  416. =======================================================================================================================================
  417. General
  418. Unique ID                                : 175586673603942613455062095029002812027 (0x8418C3648B11C954EEF426B94FE3BA7B)
  419. Complete name                            : 4. Harry Potter and the Goblet of Fire (2005) 1080p 10bit Bluray x265 HEVC [Org DD 2.0 Hindi + DD 5.1 Eng] ESubs ~ Jitu.mkv
  420. Format                                   : Matroska
  421. Format version                           : Version 4
  422. File size                                : 3.34 GiB
  423. Duration                                 : 2 h 37 min
  424. Overall bit rate                         : 3 043 kb/s
  425. Movie name                               : Harry Potter and the Goblet of Fire (2005) 1080p 10bit Bluray x265 HEVC [Org DD 2.0 Hindi + DD 5.1 Eng] ESubs ~ Jitu
  426. Encoded date                             : UTC 2018-07-22 17:15:24
  427. Writing application                      : mkvmerge v25.0.0 ('Prog Noir') 64-bit
  428. Writing library                          : libebml v1.3.6 + libmatroska v1.4.9
  429.  
  430. Video
  431. ID                                       : 1
  432. Format                                   : HEVC
  433. Format/Info                              : High Efficiency Video Coding
  434. Format profile                           : Main 10@L4@Main
  435. Codec ID                                 : V_MPEGH/ISO/HEVC
  436. Duration                                 : 2 h 37 min
  437. Bit rate                                 : 2 581 kb/s
  438. Width                                    : 1 920 pixels
  439. Height                                   : 800 pixels
  440. Display aspect ratio                     : 2.40:1
  441. Frame rate mode                          : Constant
  442. Frame rate                               : 23.976 (24000/1001) FPS
  443. Color space                              : YUV
  444. Chroma subsampling                       : 4:2:0
  445. Bit depth                                : 10 bits
  446. Bits/(Pixel*Frame)                       : 0.070
  447. Stream size                              : 2.83 GiB (85%)
  448. Writing library                          : x265 1.9+140-34a3d35c5f97:[Windows][GCC 5.3.0][64 bit] 10bit
  449. Encoding settings                        : wpp / ctu=64 / min-cu-size=8 / max-tu-size=32 / tu-intra-depth=1 / tu-inter-depth=1 / me=1 / subme=2 / merange=57 / no-rect / no-amp / max-merge=2 / temporal-mvp / no-early-skip / rdpenalty=0 / no-tskip / no-tskip-fast / strong-intra-smoothing / no-lossless / no-cu-lossless / no-constrained-intra / no-fast-intra / open-gop / no-temporal-layers / interlace=0 / keyint=250 / min-keyint=23 / scenecut=40 / rc-lookahead=20 / lookahead-slices=5 / bframes=4 / bframe-bias=0 / b-adapt=2 / ref=3 / limit-refs=3 / no-limit-modes / weightp / no-weightb / aq-mode=1 / qg-size=32 / aq-strength=1.00 / cbqpoffs=0 / crqpoffs=0 / rd=3 / psy-rd=2.00 / rdoq-level=0 / psy-rdoq=0.00 / no-rd-refine / signhide / deblock=0:0 / sao / no-sao-non-deblock / b-pyramid / cutree / no-intra-refresh / rc=2 / pass / bitrate=2580 / qcomp=0.60 / qpmin=0 / qpmax=51 / qpstep=4 / cplxblur=20.0 / qblur=0.5 / ipratio=1.40 / pbratio=1.30
  450. Default                                  : Yes
  451. Forced                                   : No
  452.  
  453. Audio #1
  454. ID                                       : 2
  455. Format                                   : AC-3
  456. Format/Info                              : Audio Coding 3
  457. Commercial name                          : Dolby Digital
  458. Codec ID                                 : A_AC3
  459. Duration                                 : 2 h 37 min
  460. Bit rate mode                            : Constant
  461. Bit rate                                 : 224 kb/s
  462. Channel(s)                               : 2 channels
  463. Channel layout                           : L R
  464. Sampling rate                            : 48.0 kHz
  465. Frame rate                               : 31.250 FPS (1536 SPF)
  466. Bit depth                                : 16 bits
  467. Compression mode                         : Lossy
  468. Delay relative to video                  : 1 s 50 ms
  469. Stream size                              : 252 MiB (7%)
  470. Title                                    : Org DD 2.0 224Kbps ~ Jitu
  471. Language                                 : Hindi
  472. Service kind                             : Complete Main
  473. Default                                  : Yes
  474. Forced                                   : Yes
  475.  
  476. Audio #2
  477. ID                                       : 3
  478. Format                                   : AC-3
  479. Format/Info                              : Audio Coding 3
  480. Commercial name                          : Dolby Digital
  481. Codec ID                                 : A_AC3
  482. Duration                                 : 2 h 37 min
  483. Bit rate mode                            : Constant
  484. Bit rate                                 : 224 kb/s
  485. Channel(s)                               : 6 channels
  486. Channel layout                           : L R C LFE Ls Rs
  487. Sampling rate                            : 48.0 kHz
  488. Frame rate                               : 31.250 FPS (1536 SPF)
  489. Bit depth                                : 16 bits
  490. Compression mode                         : Lossy
  491. Stream size                              : 252 MiB (7%)
  492. Language                                 : English
  493. Service kind                             : Complete Main
  494. Default                                  : No
  495. Forced                                   : No
  496.  
  497. Text
  498. ID                                       : 4
  499. Format                                   : PGS
  500. Muxing mode                              : zlib
  501. Codec ID                                 : S_HDMV/PGS
  502. Codec ID/Info                            : Picture based subtitle format used on BDs/HD-DVDs
  503. Duration                                 : 2 h 36 min
  504. Bit rate                                 : 27.1 kb/s
  505. Count of elements                        : 3608
  506. Stream size                              : 30.3 MiB (1%)
  507. Title                                    : Eng PGS
  508. Language                                 : English
  509. Default                                  : Yes
  510. Forced                                   : Yes
  511.  
  512. Menu
  513. 00:00:00.000                             : en:The Riddle House
  514. 00:03:46.560                             : en:The Hungrian Horntail
  515. 00:06:09.369                             : en:Sirius Conversation
  516. 00:09:50.089                             : en:Rita Keeter
  517. 00:13:45.324                             : en:Let Events Unfold
  518. 00:19:14.987                             : en:The Four Champions
  519. 00:23:09.388                             : en:The Unforgivable Curses
  520. 00:29:01.573                             : en:The Goblet of Fire
  521. 00:36:26.684                             : en:The Triwizard Tournament
  522. 00:39:05.009                             : en:The Dark Mark
  523. 00:41:32.490                             : en:The Quidditch World Cup
  524. 00:45:36.400                             : en:The Portkey
  525. 00:49:07.778                             : en:Best Foot Forward
  526. 00:54:06.243                             : en:The First Task
  527. 01:02:46.596                             : en:Tranforming Malfoy
  528. 01:09:12.982                             : en:An Unexpected Challenge
  529. 01:14:43.979                             : en:The Yule Ball
  530. 01:22:27.609                             : en:The Egg's Clue
  531. 01:30:34.763                             : en:The Second Task
  532. 01:39:29.297                             : en:Never Whole Again
  533. 01:42:42.490                             : en:The Pensieve
  534. 01:47:22.936                             : en:Dreams and Suspicions
  535. 01:50:19.279                             : en:The Third Task
  536. 01:58:54.461                             : en:Flesh, Blood and Bone
  537. 02:02:02.315                             : en:The Death Eaters
  538. 02:06:36.589                             : en:Priori Incantatem
  539. 02:10:01.627                             : en:Veritaserum
  540. 02:17:38.083                             : en:Parting Ways
  541. 02:23:48.620                             : en:End Credits
  542.  
  543.  
  544. =======================================================================================================================================
  545. General
  546. Unique ID                                : 315079290970426951778133351035957672522 (0xED0A106B0FAB6855C34DC86FBCF7FA4A)
  547. Complete name                            : 5. Harry Potter and the Order of the Phoenix (2007) 1080p 10bit Bluray x265 HEVC [Org DD 2.0 Hindi + DD 5.1 Eng] ESubs ~ Jitu.mkv
  548. Format                                   : Matroska
  549. Format version                           : Version 4
  550. File size                                : 2.84 GiB
  551. Duration                                 : 2 h 18 min
  552. Overall bit rate                         : 2 944 kb/s
  553. Movie name                               : Harry Potter and the Order of the Phoenix (2007) 1080p 10bit Bluray x265 HEVC [Org DD 2.0 Hindi + DD 5.1 Eng] ESubs ~ Jitu
  554. Encoded date                             : UTC 2018-07-22 18:24:45
  555. Writing application                      : mkvmerge v25.0.0 ('Prog Noir') 64-bit
  556. Writing library                          : libebml v1.3.6 + libmatroska v1.4.9
  557.  
  558. Video
  559. ID                                       : 1
  560. Format                                   : HEVC
  561. Format/Info                              : High Efficiency Video Coding
  562. Format profile                           : Main 10@L4@Main
  563. Codec ID                                 : V_MPEGH/ISO/HEVC
  564. Duration                                 : 2 h 18 min
  565. Bit rate                                 : 2 480 kb/s
  566. Width                                    : 1 920 pixels
  567. Height                                   : 800 pixels
  568. Display aspect ratio                     : 2.40:1
  569. Frame rate mode                          : Constant
  570. Frame rate                               : 23.976 (24000/1001) FPS
  571. Color space                              : YUV
  572. Chroma subsampling                       : 4:2:0
  573. Bit depth                                : 10 bits
  574. Bits/(Pixel*Frame)                       : 0.067
  575. Stream size                              : 2.39 GiB (84%)
  576. Writing library                          : x265 1.9+140-34a3d35c5f97:[Windows][GCC 5.3.0][64 bit] 10bit
  577. Encoding settings                        : wpp / ctu=64 / min-cu-size=8 / max-tu-size=32 / tu-intra-depth=1 / tu-inter-depth=1 / me=1 / subme=2 / merange=57 / no-rect / no-amp / max-merge=2 / temporal-mvp / no-early-skip / rdpenalty=0 / no-tskip / no-tskip-fast / strong-intra-smoothing / no-lossless / no-cu-lossless / no-constrained-intra / no-fast-intra / open-gop / no-temporal-layers / interlace=0 / keyint=250 / min-keyint=23 / scenecut=40 / rc-lookahead=20 / lookahead-slices=5 / bframes=4 / bframe-bias=0 / b-adapt=2 / ref=3 / limit-refs=3 / no-limit-modes / weightp / no-weightb / aq-mode=1 / qg-size=32 / aq-strength=1.00 / cbqpoffs=0 / crqpoffs=0 / rd=3 / psy-rd=2.00 / rdoq-level=0 / psy-rdoq=0.00 / no-rd-refine / signhide / deblock=0:0 / sao / no-sao-non-deblock / b-pyramid / cutree / no-intra-refresh / rc=2 / pass / bitrate=2480 / qcomp=0.60 / qpmin=0 / qpmax=51 / qpstep=4 / cplxblur=20.0 / qblur=0.5 / ipratio=1.40 / pbratio=1.30
  578. Default                                  : Yes
  579. Forced                                   : No
  580.  
  581. Audio #1
  582. ID                                       : 2
  583. Format                                   : AC-3
  584. Format/Info                              : Audio Coding 3
  585. Commercial name                          : Dolby Digital
  586. Codec ID                                 : A_AC3
  587. Duration                                 : 2 h 18 min
  588. Bit rate mode                            : Constant
  589. Bit rate                                 : 224 kb/s
  590. Channel(s)                               : 2 channels
  591. Channel layout                           : L R
  592. Sampling rate                            : 48.0 kHz
  593. Frame rate                               : 31.250 FPS (1536 SPF)
  594. Bit depth                                : 16 bits
  595. Compression mode                         : Lossy
  596. Delay relative to video                  : 1 s 50 ms
  597. Stream size                              : 221 MiB (8%)
  598. Title                                    : Org DD 2.0 224Kbps ~ Jitu
  599. Language                                 : Hindi
  600. Service kind                             : Complete Main
  601. Default                                  : Yes
  602. Forced                                   : Yes
  603.  
  604. Audio #2
  605. ID                                       : 3
  606. Format                                   : AC-3
  607. Format/Info                              : Audio Coding 3
  608. Commercial name                          : Dolby Digital
  609. Codec ID                                 : A_AC3
  610. Duration                                 : 2 h 18 min
  611. Bit rate mode                            : Constant
  612. Bit rate                                 : 224 kb/s
  613. Channel(s)                               : 6 channels
  614. Channel layout                           : L R C LFE Ls Rs
  615. Sampling rate                            : 48.0 kHz
  616. Frame rate                               : 31.250 FPS (1536 SPF)
  617. Bit depth                                : 16 bits
  618. Compression mode                         : Lossy
  619. Stream size                              : 221 MiB (8%)
  620. Language                                 : English
  621. Service kind                             : Complete Main
  622. Default                                  : No
  623. Forced                                   : No
  624.  
  625. Text
  626. ID                                       : 4
  627. Format                                   : PGS
  628. Muxing mode                              : zlib
  629. Codec ID                                 : S_HDMV/PGS
  630. Codec ID/Info                            : Picture based subtitle format used on BDs/HD-DVDs
  631. Duration                                 : 2 h 17 min
  632. Bit rate                                 : 31.7 kb/s
  633. Count of elements                        : 3046
  634. Stream size                              : 31.2 MiB (1%)
  635. Title                                    : Eng PGS
  636. Language                                 : English
  637. Default                                  : Yes
  638. Forced                                   : Yes
  639.  
  640. Menu
  641. 00:00:00.000                             : en:Dudley Demented
  642. 00:04:50.957                             : en:The Advance Guard
  643. 00:10:16.783                             : en:Number 12, Grimmauld Place
  644. 00:15:19.919                             : en:The Order of the Phoenix
  645. 00:17:43.229                             : en:The Ministry of Magic
  646. 00:20:52.418                             : en:The Hearing
  647. 00:25:33.532                             : en:The Originals
  648. 00:28:07.352                             : en:Luna Lovegood
  649. 00:30:20.986                             : en:Preserve, Perfect and Prune
  650. 00:34:53.925                             : en:Professor Umbridge's Class
  651. 00:37:41.092                             : en:Detention with Dolores
  652. 00:41:48.506                             : en:Thestrals and Sympathy
  653. 00:44:57.528                             : en:The Hogwarts High Inquisitor
  654. 00:50:57.388                             : en:In the Hog's Head
  655. 00:56:37.394                             : en:Dumbledore's Army
  656. 01:03:28.638                             : en:Under the Mistletoe
  657. 01:07:39.055                             : en:Occlumency
  658. 01:11:16.105                             : en:House of Black
  659. 01:16:30.252                             : en:Hagrid's Tale
  660. 01:19:16.585                             : en:Unquiet Escape
  661. 01:25:30.959                             : en:Grawp
  662. 01:31:30.652                             : en:Snape's Worst Memory
  663. 01:34:49.851                             : en:O.W.L.S.
  664. 01:37:42.356                             : en:Out of the Fire
  665. 01:41:40.261                             : en:Fight and Flight
  666. 01:45:59.353                             : en:The Department of Mysteries
  667. 01:48:37.177                             : en:Beyond the Veil
  668. 01:52:40.921                             : en:Side By Side
  669. 01:57:30.710                             : en:Wizards Duel
  670. 02:03:33.239                             : en:The Lost Prophecy
  671. 02:05:50.710                             : en:A Way of Coming Back
  672. 02:08:26.866                             : en:End Credits
  673.  
  674.  
  675. =======================================================================================================================================
  676. General
  677. Unique ID                                : 104477058279586037729806669498713532486 (0x4E998CAC4EE659B4B75A425B54DA6846)
  678. Complete name                            : 6. Harry Potter and the Half-Blood Prince (2009) 1080p 10bit Bluray x265 HEVC [Org DD 5.1 Hindi + DD 5.1 Eng] ESubs ~ Jitu.mkv
  679. Format                                   : Matroska
  680. Format version                           : Version 4
  681. File size                                : 3.40 GiB
  682. Duration                                 : 2 h 33 min
  683. Overall bit rate                         : 3 167 kb/s
  684. Movie name                               : Harry Potter and the Half-Blood Prince (2009) 1080p 10bit Bluray x265 HEVC [Org DD 5.1 Hindi + DD 5.1 Eng] ESubs ~ Jitu
  685. Encoded date                             : UTC 2018-07-22 19:03:55
  686. Writing application                      : mkvmerge v25.0.0 ('Prog Noir') 64-bit
  687. Writing library                          : libebml v1.3.6 + libmatroska v1.4.9
  688.  
  689. Video
  690. ID                                       : 1
  691. Format                                   : HEVC
  692. Format/Info                              : High Efficiency Video Coding
  693. Format profile                           : Main 10@L4@Main
  694. Codec ID                                 : V_MPEGH/ISO/HEVC
  695. Duration                                 : 2 h 33 min
  696. Bit rate                                 : 2 482 kb/s
  697. Width                                    : 1 920 pixels
  698. Height                                   : 800 pixels
  699. Display aspect ratio                     : 2.40:1
  700. Frame rate mode                          : Constant
  701. Frame rate                               : 23.976 (24000/1001) FPS
  702. Color space                              : YUV
  703. Chroma subsampling                       : 4:2:0
  704. Bit depth                                : 10 bits
  705. Bits/(Pixel*Frame)                       : 0.067
  706. Stream size                              : 2.66 GiB (78%)
  707. Writing library                          : x265 1.9+140-34a3d35c5f97:[Windows][GCC 5.3.0][64 bit] 10bit
  708. Encoding settings                        : wpp / ctu=64 / min-cu-size=8 / max-tu-size=32 / tu-intra-depth=1 / tu-inter-depth=1 / me=1 / subme=2 / merange=57 / no-rect / no-amp / max-merge=2 / temporal-mvp / no-early-skip / rdpenalty=0 / no-tskip / no-tskip-fast / strong-intra-smoothing / no-lossless / no-cu-lossless / no-constrained-intra / no-fast-intra / open-gop / no-temporal-layers / interlace=0 / keyint=250 / min-keyint=23 / scenecut=40 / rc-lookahead=20 / lookahead-slices=5 / bframes=4 / bframe-bias=0 / b-adapt=2 / ref=3 / limit-refs=3 / no-limit-modes / weightp / no-weightb / aq-mode=1 / qg-size=32 / aq-strength=1.00 / cbqpoffs=0 / crqpoffs=0 / rd=3 / psy-rd=2.00 / rdoq-level=0 / psy-rdoq=0.00 / no-rd-refine / signhide / deblock=0:0 / sao / no-sao-non-deblock / b-pyramid / cutree / no-intra-refresh / rc=2 / pass / bitrate=2481 / qcomp=0.60 / qpmin=0 / qpmax=51 / qpstep=4 / cplxblur=20.0 / qblur=0.5 / ipratio=1.40 / pbratio=1.30
  709. Default                                  : Yes
  710. Forced                                   : No
  711.  
  712. Audio #1
  713. ID                                       : 2
  714. Format                                   : AC-3
  715. Format/Info                              : Audio Coding 3
  716. Commercial name                          : Dolby Digital
  717. Codec ID                                 : A_AC3
  718. Duration                                 : 2 h 33 min
  719. Bit rate mode                            : Constant
  720. Bit rate                                 : 448 kb/s
  721. Channel(s)                               : 6 channels
  722. Channel layout                           : L R C LFE Ls Rs
  723. Sampling rate                            : 48.0 kHz
  724. Frame rate                               : 31.250 FPS (1536 SPF)
  725. Bit depth                                : 16 bits
  726. Compression mode                         : Lossy
  727. Delay relative to video                  : 900 ms
  728. Stream size                              : 492 MiB (14%)
  729. Title                                    : Org DD 5.1 448Kbps ~ Jitu
  730. Language                                 : Hindi
  731. Service kind                             : Complete Main
  732. Default                                  : Yes
  733. Forced                                   : Yes
  734.  
  735. Audio #2
  736. ID                                       : 3
  737. Format                                   : AC-3
  738. Format/Info                              : Audio Coding 3
  739. Commercial name                          : Dolby Digital
  740. Codec ID                                 : A_AC3
  741. Duration                                 : 2 h 33 min
  742. Bit rate mode                            : Constant
  743. Bit rate                                 : 224 kb/s
  744. Channel(s)                               : 6 channels
  745. Channel layout                           : L R C LFE Ls Rs
  746. Sampling rate                            : 48.0 kHz
  747. Frame rate                               : 31.250 FPS (1536 SPF)
  748. Bit depth                                : 16 bits
  749. Compression mode                         : Lossy
  750. Stream size                              : 246 MiB (7%)
  751. Language                                 : English
  752. Service kind                             : Complete Main
  753. Default                                  : No
  754. Forced                                   : No
  755.  
  756. Text
  757. ID                                       : 4
  758. Format                                   : PGS
  759. Muxing mode                              : zlib
  760. Codec ID                                 : S_HDMV/PGS
  761. Codec ID/Info                            : Picture based subtitle format used on BDs/HD-DVDs
  762. Duration                                 : 2 h 33 min
  763. Bit rate                                 : 28.1 kb/s
  764. Count of elements                        : 3042
  765. Stream size                              : 30.8 MiB (1%)
  766. Title                                    : Eng PGS
  767. Language                                 : English
  768. Default                                  : Yes
  769. Forced                                   : Yes
  770.  
  771. Menu
  772. 00:00:00.000                             : en:Who's Harry Potter?
  773. 00:05:28.495                             : en:Horace Slughorn
  774. 00:12:13.942                             : en:What Could Be Safer?
  775. 00:14:57.146                             : en:Snape's Visitors
  776. 00:18:43.205                             : en:Draco's Detour
  777. 00:22:30.516                             : en:That's For My Father
  778. 00:27:36.029                             : en:Dark Forces
  779. 00:32:04.631                             : en:The Half Blood Prince
  780. 00:37:48.224                             : en:The Secret Riddle
  781. 00:44:48.352                             : en:Hermione's Helping Hand
  782. 00:49:31.760                             : en:Cursed Necklace
  783. 00:54:55.375                             : en:Slug Club
  784. 01:00:00.305                             : en:Felix Felicis
  785. 01:03:09.661                             : en:How It Feels
  786. 01:05:57.162                             : en:Free Agents
  787. 01:09:13.691                             : en:The Unbreakable Vow
  788. 01:14:00.102                             : en:Death Eaters Attack
  789. 01:21:09.782                             : en:A Sluggish Memory
  790. 01:26:31.478                             : en:Perilous Potions
  791. 01:33:37.403                             : en:Sectumsempra
  792. 01:39:57.325                             : en:Hiding the Book
  793. 01:43:16.273                             : en:Liquid Luck
  794. 01:48:24.748                             : en:After Aragog's Burial
  795. 01:52:30.118                             : en:Horcruxes
  796. 01:56:53.673                             : en:The Cave
  797. 02:02:11.741                             : en:Inferi Attack
  798. 02:08:33.539                             : en:The Astronomy Tower
  799. 02:15:00.301                             : en:Flight of the Prince
  800. 02:19:08.048                             : en:R.a.B.
  801. 02:23:54.125                             : en:End Credits
  802.  
  803.  
  804. =======================================================================================================================================
  805. General
  806. Unique ID                                : 50878835113108112262049590902672671879 (0x2646E83EC85D42EB7E7D90B5943D4487)
  807. Complete name                            : 7. Harry Potter and the Deathly Hallows - Part 1 (2010) 1080p 10bit Bluray x265 HEVC [Org DD 5.1 Hindi + DD 5.1 Eng] ESubs ~ Jitu.mkv
  808. Format                                   : Matroska
  809. Format version                           : Version 4
  810. File size                                : 3.33 GiB
  811. Duration                                 : 2 h 26 min
  812. Overall bit rate                         : 3 259 kb/s
  813. Movie name                               : Harry Potter and the Deathly Hallows - Part 1 (2010) 1080p 10bit Bluray x265 HEVC [Org DD 5.1 Hindi + DD 5.1 Eng] ESubs ~ Jitu
  814. Encoded date                             : UTC 2018-07-22 19:39:36
  815. Writing application                      : mkvmerge v25.0.0 ('Prog Noir') 64-bit
  816. Writing library                          : libebml v1.3.6 + libmatroska v1.4.9
  817.  
  818. Video
  819. ID                                       : 1
  820. Format                                   : HEVC
  821. Format/Info                              : High Efficiency Video Coding
  822. Format profile                           : Main 10@L4@Main
  823. Codec ID                                 : V_MPEGH/ISO/HEVC
  824. Duration                                 : 2 h 26 min
  825. Bit rate                                 : 2 574 kb/s
  826. Width                                    : 1 920 pixels
  827. Height                                   : 800 pixels
  828. Display aspect ratio                     : 2.40:1
  829. Frame rate mode                          : Constant
  830. Frame rate                               : 23.976 (24000/1001) FPS
  831. Color space                              : YUV
  832. Chroma subsampling                       : 4:2:0
  833. Bit depth                                : 10 bits
  834. Bits/(Pixel*Frame)                       : 0.070
  835. Stream size                              : 2.63 GiB (79%)
  836. Writing library                          : x265 1.9+140-34a3d35c5f97:[Windows][GCC 5.3.0][64 bit] 10bit
  837. Encoding settings                        : wpp / ctu=64 / min-cu-size=8 / max-tu-size=32 / tu-intra-depth=1 / tu-inter-depth=1 / me=1 / subme=2 / merange=57 / no-rect / no-amp / max-merge=2 / temporal-mvp / no-early-skip / rdpenalty=0 / no-tskip / no-tskip-fast / strong-intra-smoothing / no-lossless / no-cu-lossless / no-constrained-intra / no-fast-intra / open-gop / no-temporal-layers / interlace=0 / keyint=250 / min-keyint=23 / scenecut=40 / rc-lookahead=20 / lookahead-slices=5 / bframes=4 / bframe-bias=0 / b-adapt=2 / ref=3 / limit-refs=3 / no-limit-modes / weightp / no-weightb / aq-mode=1 / qg-size=32 / aq-strength=1.00 / cbqpoffs=0 / crqpoffs=0 / rd=3 / psy-rd=2.00 / rdoq-level=0 / psy-rdoq=0.00 / no-rd-refine / signhide / deblock=0:0 / sao / no-sao-non-deblock / b-pyramid / cutree / no-intra-refresh / rc=2 / pass / bitrate=2573 / qcomp=0.60 / qpmin=0 / qpmax=51 / qpstep=4 / cplxblur=20.0 / qblur=0.5 / ipratio=1.40 / pbratio=1.30
  838. Default                                  : Yes
  839. Forced                                   : No
  840.  
  841. Audio #1
  842. ID                                       : 2
  843. Format                                   : AC-3
  844. Format/Info                              : Audio Coding 3
  845. Commercial name                          : Dolby Digital
  846. Codec ID                                 : A_AC3
  847. Duration                                 : 2 h 26 min
  848. Bit rate mode                            : Constant
  849. Bit rate                                 : 448 kb/s
  850. Channel(s)                               : 6 channels
  851. Channel layout                           : L R C LFE Ls Rs
  852. Sampling rate                            : 48.0 kHz
  853. Frame rate                               : 31.250 FPS (1536 SPF)
  854. Bit depth                                : 16 bits
  855. Compression mode                         : Lossy
  856. Stream size                              : 468 MiB (14%)
  857. Title                                    : Org DD 5.1 448Kbps ~ Jitu
  858. Language                                 : Hindi
  859. Service kind                             : Complete Main
  860. Default                                  : Yes
  861. Forced                                   : Yes
  862.  
  863. Audio #2
  864. ID                                       : 3
  865. Format                                   : AC-3
  866. Format/Info                              : Audio Coding 3
  867. Commercial name                          : Dolby Digital
  868. Codec ID                                 : A_AC3
  869. Duration                                 : 2 h 26 min
  870. Bit rate mode                            : Constant
  871. Bit rate                                 : 224 kb/s
  872. Channel(s)                               : 6 channels
  873. Channel layout                           : L R C LFE Ls Rs
  874. Sampling rate                            : 48.0 kHz
  875. Frame rate                               : 31.250 FPS (1536 SPF)
  876. Bit depth                                : 16 bits
  877. Compression mode                         : Lossy
  878. Stream size                              : 234 MiB (7%)
  879. Language                                 : English
  880. Service kind                             : Complete Main
  881. Default                                  : No
  882. Forced                                   : No
  883.  
  884. Text
  885. ID                                       : 4
  886. Format                                   : PGS
  887. Muxing mode                              : zlib
  888. Codec ID                                 : S_HDMV/PGS
  889. Codec ID/Info                            : Picture based subtitle format used on BDs/HD-DVDs
  890. Duration                                 : 2 h 25 min
  891. Bit rate                                 : 27.0 kb/s
  892. Count of elements                        : 2892
  893. Stream size                              : 28.1 MiB (1%)
  894. Title                                    : Eng PGS
  895. Language                                 : English
  896. Default                                  : Yes
  897. Forced                                   : Yes
  898.  
  899. Menu
  900. 00:00:00.000                             : en:Dark Times
  901. 00:04:18.508                             : en:Dark Lord Ascending
  902. 00:09:46.628                             : en:The Seven Potters
  903. 00:15:16.207                             : en:Aerial Ambush
  904. 00:19:13.569                             : en:Fallen Warrior
  905. 00:26:04.229                             : en:Dumbledore's Will
  906. 00:31:37.771                             : en:The Wedding
  907. 00:35:43.308                             : en:A Place to Hide
  908. 00:41:37.537                             : en:Kreacher's Tale
  909. 00:45:45.618                             : en:Theft of a Thief
  910. 00:50:14.094                             : en:Ministry Interior
  911. 00:55:02.716                             : en:Secret Files
  912. 00:58:31.174                             : en:Lifting the Locket
  913. 01:03:41.359                             : en:Forest Fugitives
  914. 01:10:02.239                             : en:Getting Too Close
  915. 01:14:30.966                             : en:Broken Ranks
  916. 01:18:48.891                             : en:Invitation to Dance
  917. 01:22:17.641                             : en:Clues Revealed
  918. 01:24:55.131                             : en:Godric's Hollow
  919. 01:28:03.236                             : en:Bathilda's Secret
  920. 01:32:34.215                             : en:The Silver Doe
  921. 01:37:40.271                             : en:Sword of Gryffindor
  922. 01:42:37.609                             : en:Lighting the Way Back
  923. 01:47:54.176                             : en:The Three Brothers
  924. 01:53:48.154                             : en:The Deathly Hallows
  925. 01:57:31.002                             : en:Snatchers Strike
  926. 02:01:28.030                             : en:Malfoy Manor
  927. 02:05:42.201                             : en:Dobby has No Master
  928. 02:09:42.774                             : en:Sleeping Friend
  929. 02:13:16.071                             : en:Grave Robber
  930. 02:14:47.162                             : en:End Credits
  931.  
  932.  
  933. =======================================================================================================================================
  934. General
  935. Unique ID                                : 20964071344221790851409949871213524864 (0xFC58884C376C1582A327CEA51923780)
  936. Complete name                            : 8. Harry Potter and the Deathly Hallows - Part 2 (2011) 1080p 10bit Bluray x265 HEVC [Org DD 5.1 Hindi + DD 5.1 Eng] ESubs ~ Jitu.mkv
  937. Format                                   : Matroska
  938. Format version                           : Version 4
  939. File size                                : 2.89 GiB
  940. Duration                                 : 2 h 10 min
  941. Overall bit rate                         : 3 169 kb/s
  942. Movie name                               : Harry Potter and the Deathly Hallows - Part 2 (2011) 1080p 10bit Bluray x265 HEVC [Org DD 5.1 Hindi + DD 5.1 Eng] ESubs ~ Jitu
  943. Encoded date                             : UTC 2018-07-23 08:40:21
  944. Writing application                      : mkvmerge v25.0.0 ('Prog Noir') 64-bit
  945. Writing library                          : libebml v1.3.6 + libmatroska v1.4.9
  946.  
  947. Video
  948. ID                                       : 1
  949. Format                                   : HEVC
  950. Format/Info                              : High Efficiency Video Coding
  951. Format profile                           : Main 10@L4@Main
  952. Codec ID                                 : V_MPEGH/ISO/HEVC
  953. Duration                                 : 2 h 10 min
  954. Bit rate                                 : 2 487 kb/s
  955. Width                                    : 1 920 pixels
  956. Height                                   : 800 pixels
  957. Display aspect ratio                     : 2.40:1
  958. Frame rate mode                          : Constant
  959. Frame rate                               : 23.976 (24000/1001) FPS
  960. Color space                              : YUV
  961. Chroma subsampling                       : 4:2:0
  962. Bit depth                                : 10 bits
  963. Bits/(Pixel*Frame)                       : 0.068
  964. Stream size                              : 2.27 GiB (78%)
  965. Writing library                          : x265 1.9+140-34a3d35c5f97:[Windows][GCC 5.3.0][64 bit] 10bit
  966. Encoding settings                        : wpp / ctu=64 / min-cu-size=8 / max-tu-size=32 / tu-intra-depth=1 / tu-inter-depth=1 / me=1 / subme=2 / merange=57 / no-rect / no-amp / max-merge=2 / temporal-mvp / no-early-skip / rdpenalty=0 / no-tskip / no-tskip-fast / strong-intra-smoothing / no-lossless / no-cu-lossless / no-constrained-intra / no-fast-intra / open-gop / no-temporal-layers / interlace=0 / keyint=250 / min-keyint=23 / scenecut=40 / rc-lookahead=20 / lookahead-slices=5 / bframes=4 / bframe-bias=0 / b-adapt=2 / ref=3 / limit-refs=3 / no-limit-modes / weightp / no-weightb / aq-mode=1 / qg-size=32 / aq-strength=1.00 / cbqpoffs=0 / crqpoffs=0 / rd=3 / psy-rd=2.00 / rdoq-level=0 / psy-rdoq=0.00 / no-rd-refine / signhide / deblock=0:0 / sao / no-sao-non-deblock / b-pyramid / cutree / no-intra-refresh / rc=2 / pass / bitrate=2486 / qcomp=0.60 / qpmin=0 / qpmax=51 / qpstep=4 / cplxblur=20.0 / qblur=0.5 / ipratio=1.40 / pbratio=1.30
  967. Default                                  : Yes
  968. Forced                                   : No
  969.  
  970. Audio #1
  971. ID                                       : 2
  972. Format                                   : AC-3
  973. Format/Info                              : Audio Coding 3
  974. Commercial name                          : Dolby Digital
  975. Codec ID                                 : A_AC3
  976. Duration                                 : 2 h 10 min
  977. Bit rate mode                            : Constant
  978. Bit rate                                 : 448 kb/s
  979. Channel(s)                               : 6 channels
  980. Channel layout                           : L R C LFE Ls Rs
  981. Sampling rate                            : 48.0 kHz
  982. Frame rate                               : 31.250 FPS (1536 SPF)
  983. Bit depth                                : 16 bits
  984. Compression mode                         : Lossy
  985. Stream size                              : 418 MiB (14%)
  986. Title                                    : Org DD 5.1 448Kbps ~ Jitu
  987. Language                                 : Hindi
  988. Service kind                             : Complete Main
  989. Default                                  : Yes
  990. Forced                                   : Yes
  991.  
  992. Audio #2
  993. ID                                       : 3
  994. Format                                   : AC-3
  995. Format/Info                              : Audio Coding 3
  996. Commercial name                          : Dolby Digital
  997. Codec ID                                 : A_AC3
  998. Duration                                 : 2 h 10 min
  999. Bit rate mode                            : Constant
  1000. Bit rate                                 : 224 kb/s
  1001. Channel(s)                               : 6 channels
  1002. Channel layout                           : L R C LFE Ls Rs
  1003. Sampling rate                            : 48.0 kHz
  1004. Frame rate                               : 31.250 FPS (1536 SPF)
  1005. Bit depth                                : 16 bits
  1006. Compression mode                         : Lossy
  1007. Stream size                              : 209 MiB (7%)
  1008. Language                                 : English
  1009. Service kind                             : Complete Main
  1010. Default                                  : No
  1011. Forced                                   : No
  1012.  
  1013. Text
  1014. ID                                       : 4
  1015. Format                                   : PGS
  1016. Muxing mode                              : zlib
  1017. Codec ID                                 : S_HDMV/PGS
  1018. Codec ID/Info                            : Picture based subtitle format used on BDs/HD-DVDs
  1019. Duration                                 : 2 h 9 min
  1020. Bit rate                                 : 19.8 kb/s
  1021. Count of elements                        : 2058
  1022. Stream size                              : 18.3 MiB (1%)
  1023. Title                                    : Eng PGS
  1024. Language                                 : English
  1025. Default                                  : Yes
  1026. Forced                                   : Yes
  1027.  
  1028. Menu
  1029. 00:00:00.000                             : en:Chapter 1
  1030. 00:02:58.220                             : en:Chapter 2
  1031. 00:06:21.172                             : en:Chapter 3
  1032. 00:10:21.871                             : en:Chapter 4
  1033. 00:14:27.992                             : en:Chapter 5
  1034. 00:20:05.621                             : en:Chapter 6
  1035. 00:22:47.783                             : en:Chapter 7
  1036. 00:25:38.620                             : en:Chapter 8
  1037. 00:30:46.803                             : en:Chapter 9
  1038. 00:34:33.655                             : en:Chapter 10
  1039. 00:40:32.263                             : en:Chapter 11
  1040. 00:45:52.249                             : en:Chapter 12
  1041. 00:50:15.471                             : en:Chapter 13
  1042. 00:54:41.027                             : en:Chapter 14
  1043. 00:59:01.246                             : en:Chapter 15
  1044. 01:03:42.068                             : en:Chapter 16
  1045. 01:07:06.063                             : en:Chapter 17
  1046. 01:11:24.488                             : en:Chapter 18
  1047. 01:14:38.932                             : en:Chapter 19
  1048. 01:23:40.849                             : en:Chapter 20
  1049. 01:29:17.727                             : en:Chapter 21
  1050. 01:31:25.021                             : en:Chapter 22
  1051. 01:36:37.666                             : en:Chapter 23
  1052. 01:41:09.104                             : en:Chapter 24
  1053. 01:46:42.312                             : en:Chapter 25
  1054. 01:50:18.361                             : en:Chapter 26
  1055. 01:54:16.683                             : en:Chapter 27
  1056. 01:58:12.877                             : en:Chapter 28
RAW Paste Data
We use cookies for various purposes including analytics. By continuing to use Pastebin, you agree to our use of cookies as described in the Cookies Policy. OK, I Understand
Top