GrabHD

Untitled

Mar 16th, 2020
94
Never
Not a member of Pastebin yet? Sign Up, it unlocks many cool features!
  1. General
  2. Complete name : One Day (2011) BDRip 1080p-F.HD.mkv
  3. Format : Matroska
  4. File size : 4.34 GiB
  5. Duration : 1h 47mn
  6. Overall bit rate : 5 781 Kbps
  7. Encoded date : UTC 2012-04-17 05:30:15
  8. Writing application : mkvmerge v5.5.0 ('Healer') built on Apr 6 2012 21:43:24
  9. Writing library : libebml v1.2.3 + libmatroska v1.3.0
  10.  
  11. Video
  12. ID : 1
  13. Format : AVC
  14. Format/Info : Advanced Video Codec
  15. Format profile : High@L4.1
  16. Format settings, CABAC : Yes
  17. Format settings, ReFrames : 5 frames
  18. Muxing mode : Container profile=Unknown@4.1
  19. Codec ID : V_MPEG4/ISO/AVC
  20. Duration : 1h 47mn
  21. Bit rate : 5 400 Kbps
  22. Width : 1 920 pixels
  23. Height : 816 pixels
  24. Display aspect ratio : 2.35:1
  25. Frame rate : 23.976 fps
  26. Color space : YUV
  27. Chroma subsampling : 4:2:0
  28. Bit depth : 8 bits
  29. Scan type : Progressive
  30. Bits/(Pixel*Frame) : 0.144
  31. Stream size : 3.96 GiB (91%)
  32. Writing library : x264 core 122 r2184 5c85e0a
  33. Encoding settings : cabac=1 / ref=5 / deblock=1:-3:-3 / analyse=0x3:0x113 / me=umh / subme=10 / psy=1 / psy_rd=1.00:0.15 / mixed_ref=1 / me_range=48 / chroma_me=1 / trellis=2 / 8x8dct=1 / cqm=0 / deadzone=21,11 / fast_pskip=0 / chroma_qp_offset=-3 / threads=6 / sliced_threads=0 / nr=0 / decimate=1 / interlaced=0 / bluray_compat=0 / constrained_intra=0 / bframes=9 / b_pyramid=2 / b_adapt=2 / b_bias=0 / direct=3 / weightb=1 / open_gop=0 / weightp=2 / keyint=250 / keyint_min=24 / scenecut=40 / intra_refresh=0 / rc=2pass / mbtree=0 / bitrate=5400 / ratetol=1.0 / qcomp=0.70 / qpmin=0 / qpmax=69 / qpstep=4 / cplxblur=20.0 / qblur=0.5 / ip_ratio=1.40 / pb_ratio=1.30 / aq=2:0.90
  34. Color primaries : BT.709-5, BT.1361, IEC 61966-2-4, SMPTE RP177
  35. Transfer characteristics : BT.709-5, BT.1361
  36. Matrix coefficients : BT.709-5, BT.1361, IEC 61966-2-4 709, SMPTE RP177
  37.  
  38. Audio
  39. ID : 2
  40. Format : AC-3
  41. Format/Info : Audio Coding 3
  42. Mode extension : CM (complete main)
  43. Codec ID : A_AC3
  44. Duration : 1h 47mn
  45. Bit rate mode : Constant
  46. Bit rate : 384 Kbps
  47. Channel(s) : 6 channels
  48. Channel positions : Front: L C R, Side: L R, LFE
  49. Sampling rate : 48.0 KHz
  50. Bit depth : 16 bits
  51. Stream size : 295 MiB (7%)
  52. Language : Russian
  53.  
  54. Text #1
  55. ID : 3
  56. Format : UTF-8
  57. Codec ID : S_TEXT/UTF8
  58. Codec ID/Info : UTF-8 Plain Text
  59. Language : Russian
  60.  
  61. Text #2
  62. ID : 4
  63. Format : UTF-8
  64. Codec ID : S_TEXT/UTF8
  65. Codec ID/Info : UTF-8 Plain Text
  66.  
  67. Menu
  68. 00:00:00.000 : en:Chapter 01
  69. 00:03:22.952 : en:Chapter 02
  70. 00:09:12.676 : en:Chapter 03
  71. 00:12:23.867 : en:Chapter 04
  72. 00:16:40.290 : en:Chapter 05
  73. 00:21:08.517 : en:Chapter 06
  74. 00:29:21.676 : en:Chapter 07
  75. 00:37:08.726 : en:Chapter 08
  76. 00:46:03.177 : en:Chapter 09
  77. 00:52:39.906 : en:Chapter 10
  78. 00:59:43.412 : en:Chapter 11
  79. 01:05:04.483 : en:Chapter 12
  80. 01:08:07.583 : en:Chapter 13
  81. 01:12:29.636 : en:Chapter 14
  82. 01:20:02.631 : en:Chapter 15
  83. 01:25:39.716 : en:Chapter 16
  84. 01:27:39.879 : en:Chapter 17
  85. 01:31:25.813 : en:Chapter 18
  86. 01:36:55.600 : en:Chapter 19
  87. 01:41:09.521 : en:Chapter 20
  88. 01:47:28.191 : en:Chapter 21
RAW Paste Data