iMN0

Sherlock.Holmes.2009.MULTi.1080p.BluRay.REMUX.VC-1.DTS-HD.MA.5.1-LeetHD.mkv

Jul 4th, 2021
176
Never
Not a member of Pastebin yet? Sign Up, it unlocks many cool features!
  1. General
  2. Unique ID : 226333093041822879945588894014326852246 (0xAA462B0A88FC74A38955169013D24A96)
  3. Complete name : Sherlock.Holmes.2009.MULTi.1080p.BluRay.REMUX.VC-1.DTS-HD.MA.5.1-LeetHD.mkv
  4. Format : Matroska
  5. Format version : Version 2
  6. File size : 19.5 GiB
  7. Duration : 2 h 8 min
  8. Overall bit rate : 21.8 Mb/s
  9. Encoded date : UTC 2011-07-12 10:42:39
  10. Writing application : mkvmerge v4.8.0 ('I Got The...') gebaut am May 24 2011 03:12:58
  11. Writing library : libebml v1.2.0 + libmatroska v1.1.0
  12.  
  13. Video
  14. ID : 1
  15. Format : VC-1
  16. Format profile : Advanced@L3
  17. Codec ID : V_MS/VFW/FOURCC / WVC1
  18. Codec ID/Hint : Microsoft
  19. Duration : 2 h 8 min
  20. Bit rate : 19.4 Mb/s
  21. Width : 1 920 pixels
  22. Height : 1 080 pixels
  23. Display aspect ratio : 16:9
  24. Frame rate mode : Constant
  25. Frame rate : 23.976 (24000/1001) FPS
  26. Color space : YUV
  27. Chroma subsampling : 4:2:0
  28. Bit depth : 8 bits
  29. Scan type : Progressive
  30. Compression mode : Lossy
  31. Bits/(Pixel*Frame) : 0.390
  32. Stream size : 17.4 GiB (89%)
  33. Default : Yes
  34. Forced : No
  35.  
  36. Audio #1
  37. ID : 2
  38. Format : AC-3
  39. Format/Info : Audio Coding 3
  40. Commercial name : Dolby Digital
  41. Codec ID : A_AC3
  42. Duration : 2 h 8 min
  43. Bit rate mode : Constant
  44. Bit rate : 448 kb/s
  45. Channel(s) : 6 channels
  46. Channel layout : L R C LFE Ls Rs
  47. Sampling rate : 48.0 kHz
  48. Frame rate : 31.250 FPS (1536 SPF)
  49. Compression mode : Lossy
  50. Stream size : 411 MiB (2%)
  51. Language : German
  52. Service kind : Complete Main
  53. Default : Yes
  54. Forced : No
  55.  
  56. Audio #2
  57. ID : 3
  58. Format : DTS
  59. Format/Info : Digital Theater Systems
  60. Codec ID : A_DTS
  61. Duration : 2 h 8 min
  62. Bit rate mode : Constant
  63. Bit rate : 1 509 kb/s
  64. Channel(s) : 6 channels
  65. Channel layout : C L R Ls Rs LFE
  66. Sampling rate : 48.0 kHz
  67. Frame rate : 93.750 FPS (512 SPF)
  68. Bit depth : 24 bits
  69. Compression mode : Lossy
  70. Stream size : 1.35 GiB (7%)
  71. Language : English
  72. Default : No
  73. Forced : No
  74.  
  75. Text #1
  76. ID : 4
  77. Format : UTF-8
  78. Codec ID : S_TEXT/UTF8
  79. Codec ID/Info : UTF-8 Plain Text
  80. Title : Forced
  81. Language : German
  82. Default : Yes
  83. Forced : Yes
  84.  
  85. Text #2
  86. ID : 5
  87. Format : VobSub
  88. Muxing mode : zlib
  89. Codec ID : S_VOBSUB
  90. Codec ID/Info : Picture based subtitle format used on DVDs
  91. Language : German
  92. Default : No
  93. Forced : No
  94.  
  95. Menu
  96. 00:00:00.000 : :Chapter 01
  97. 00:06:46.531 : :Chapter 02
  98. 00:11:30.231 : :Chapter 03
  99. 00:15:41.607 : :Chapter 04
  100. 00:19:08.897 : :Chapter 05
  101. 00:23:29.074 : :Chapter 06
  102. 00:27:49.876 : :Chapter 07
  103. 00:32:01.252 : :Chapter 08
  104. 00:37:08.434 : :Chapter 09
  105. 00:40:50.406 : :Chapter 10
  106. 00:44:37.216 : :Chapter 11
  107. 00:47:39.690 : :Chapter 12
  108. 00:50:52.173 : :Chapter 13
  109. 00:55:17.605 : :Chapter 14
  110. 00:59:04.457 : :Chapter 15
  111. 01:03:04.780 : :Chapter 16
  112. 01:06:08.047 : :Chapter 17
  113. 01:11:14.102 : :Chapter 18
  114. 01:14:39.349 : :Chapter 19
  115. 01:17:36.318 : :Chapter 20
  116. 01:23:35.093 : :Chapter 21
  117. 01:26:06.953 : :Chapter 22
  118. 01:30:57.159 : :Chapter 23
  119. 01:35:15.376 : :Chapter 24
  120. 01:39:45.979 : :Chapter 25
  121. 01:44:18.001 : :Chapter 26
  122. 01:48:21.953 : :Chapter 27
  123. 01:54:02.710 : :Chapter 28
  124. 01:56:07.501 : :Chapter 29
  125. 02:00:26.177 : :Chapter 30
  126. 02:08:23.570 : :Chapter 31
RAW Paste Data