Advertisement
Guest User

DVB-C rec test info

a guest
Apr 3rd, 2014
336
Never
Not a member of Pastebin yet? Sign Up, it unlocks many cool features!
  1. General
  2. ID : 36 (0x24)
  3. Complete name : ...\Super TV2 HD_2014_0323_2024_26.mpg
  4. Format : MPEG-TS
  5. File size : 169 MiB
  6. Duration : 1mn 45s
  7. Start time : UTC 2014-03-23 19:24:31
  8. End time : UTC 2014-03-23 19:26:02
  9. Overall bit rate : 13.4 Mbps
  10. Network name : DIGI
  11. Original network name : Astra Satellite Network 19,2'E
  12. Country : HUN
  13. Timezone : +01:00:00
  14.  
  15. Video
  16. ID : 501 (0x1F5)
  17. Menu ID : 23 (0x17)
  18. Format : AVC
  19. Format/Info : Advanced Video Codec
  20. Format profile : Main@L4.0
  21. Format settings, CABAC : Yes
  22. Format settings, ReFrames : 2 frames
  23. Codec ID : 27
  24. Duration : 1mn 44s
  25. Bit rate : 12.5 Mbps
  26. Width : 1 920 pixels
  27. Height : 1 080 pixels
  28. Display aspect ratio : 16:9
  29. Frame rate : 25.000 fps
  30. Color space : YUV
  31. Chroma subsampling : 4:2:0
  32. Bit depth : 8 bits
  33. Scan type : MBAFF
  34. Bits/(Pixel*Frame) : 0.241
  35. Stream size : 155 MiB (92%)
  36. Color primaries : BT.709-5, BT.1361, IEC 61966-2-4, SMPTE RP177
  37. Transfer characteristics : BT.709-5, BT.1361
  38. Matrix coefficients : BT.709-5, BT.1361, IEC 61966-2-4 709, SMPTE RP177
  39.  
  40. Audio
  41. ID : 502 (0x1F6)
  42. Menu ID : 23 (0x17)
  43. Format : MPEG Audio
  44. Format version : Version 1
  45. Format profile : Layer 2
  46. Codec ID : 3
  47. Duration : 1mn 45s
  48. Bit rate mode : Constant
  49. Bit rate : 256 Kbps
  50. Channel(s) : 2 channels
  51. Sampling rate : 48.0 KHz
  52. Compression mode : Lossy
  53. Delay relative to video : -1s 276ms
  54. Stream size : 3.23 MiB (2%)
  55. Language : Hungarian
  56.  
  57. Menu
  58. ID : 500 (0x1F4)
  59. Menu ID : 23 (0x17)
  60. Duration : 1mn 45s
  61. List : 501 (0x1F5) (AVC) / 502 (0x1F6) (MPEG Audio, Hungarian)
  62. Language : / Hungarian
  63. Service name : Super TV2 HD
  64. Service provider : DIGI Budapest
  65. Service type : advanced codec HD digital television
  66. UTC 2014-03-23 18:25:00 : hu:Szörnyek az űrlények ellen / hu:(am. animációs film, 2009) fsz.: Reese Witherspoon, Seth Rogen / movie/drama / / 02:00:00 / Running
  67. UTC 2014-03-23 20:25:00 : hu:Víruscsapda / hu:(am. horror, 2009) fsz.: Lou Taylor Pucci, Chris Pine, Emily VanCamp / movie/drama / / 01:45:00 / Running
  68. .
  69. .
  70. .
  71. .
Advertisement
RAW Paste Data Copied
Advertisement