Advertisement
Crmek

Untitled

Jan 21st, 2022
67
Never
Not a member of Pastebin yet? Sign Up, it unlocks many cool features!
  1. Общее
  2. Уникальный идентификатор : 176972886015857502130916224242162988004 (0x8523BCF0FE22276BA1A49718A841F3E4)
  3. Полное имя : Eternals.(2021).IMAX.WEB-DL.2160p.HDR.mkv
  4. Формат : Matroska
  5. Версия формата : Version 4 / Version 2
  6. Размер файла : 53,0 Гбайт
  7. Продолжительность : 2 ч. 35 м.
  8. Общий поток : 48,7 Мбит/сек
  9. Дата кодирования : UTC 2022-01-21 12:19:50
  10. Программа кодирования : mkvmerge v8.3.0 ('Over the Horizon') 64bit
  11. Библиотека кодирования : libebml v1.3.1 + libmatroska v1.4.2
  12.  
  13. Видео
  14. Идентификатор : 1
  15. Формат : HEVC
  16. Формат/Информация : High Efficiency Video Coding
  17. Профиль формата : Main 10@L5.1@High
  18. HDR format : SMPTE ST 2086, HDR10 compatible
  19. Идентификатор кодека : V_MPEGH/ISO/HEVC
  20. Продолжительность : 2 ч. 35 м.
  21. Битрейт : 47,1 Мбит/сек
  22. Ширина : 3 840 пикселей
  23. Высота : 2 160 пикселей
  24. Соотношение сторон : 16:9
  25. Режим частоты кадров : Постоянный
  26. Частота кадров : 23,976 (24000/1001) кадра/сек
  27. Цветовое пространство : YUV
  28. Субдискретизация насыщенности : 4:2:0 (Type 2)
  29. Битовая глубина : 10 бит
  30. Бит/(Пиксели*Кадры) : 0.237
  31. Размер потока : 51,3 Гбайт (97%)
  32. Default : Да
  33. Forced : Нет
  34. Цветовой диапазон : Limited
  35. Основные цвета : BT.2020
  36. Характеристики трансфера : PQ
  37. Коэффициенты матрицы : BT.2020 non-constant
  38. Mastering display color primaries : Display P3
  39. Mastering display luminance : min: 0.0000 cd/m2, max: 1000 cd/m2
  40.  
  41. Аудио #1
  42. Идентификатор : 2
  43. Формат : AC-3
  44. Формат/Информация : Audio Coding 3
  45. Коммерческое название : Dolby Digital
  46. Идентификатор кодека : A_AC3
  47. Продолжительность : 2 ч. 35 м.
  48. Вид битрейта : Постоянный
  49. Битрейт : 384 Кбит/сек
  50. Каналы : 6 каналов
  51. Channel layout : L R C LFE Ls Rs
  52. Частота : 48,0 КГц
  53. Частота кадров : 31,250 кадров/сек (1536 SPF)
  54. Метод сжатия : С потерями
  55. Размер потока : 428 Мбайт (1%)
  56. Заголовок : DUB (iTunes)
  57. Язык : Russian
  58. Service kind : Complete Main
  59. Default : Да
  60. Forced : Нет
  61.  
  62. Аудио #2
  63. Идентификатор : 3
  64. Формат : AC-3
  65. Формат/Информация : Audio Coding 3
  66. Коммерческое название : Dolby Digital
  67. Идентификатор кодека : A_AC3
  68. Продолжительность : 2 ч. 35 м.
  69. Вид битрейта : Постоянный
  70. Битрейт : 448 Кбит/сек
  71. Каналы : 6 каналов
  72. Channel layout : L R C LFE Ls Rs
  73. Частота : 48,0 КГц
  74. Частота кадров : 31,250 кадров/сек (1536 SPF)
  75. Метод сжатия : С потерями
  76. Размер потока : 499 Мбайт (1%)
  77. Заголовок : MVO (HDRezka Studio)
  78. Язык : Russian
  79. Service kind : Complete Main
  80. Default : Нет
  81. Forced : Нет
  82.  
  83. Аудио #3
  84. Идентификатор : 4
  85. Формат : E-AC-3 JOC
  86. Формат/Информация : Enhanced AC-3 with Joint Object Coding
  87. Коммерческое название : Dolby Digital Plus with Dolby Atmos
  88. Идентификатор кодека : A_EAC3
  89. Продолжительность : 2 ч. 35 м.
  90. Вид битрейта : Постоянный
  91. Битрейт : 768 Кбит/сек
  92. Каналы : 6 каналов
  93. Channel layout : L R C LFE Ls Rs
  94. Частота : 48,0 КГц
  95. Частота кадров : 31,250 кадров/сек (1536 SPF)
  96. Метод сжатия : С потерями
  97. Размер потока : 856 Мбайт (2%)
  98. Заголовок : Original
  99. Язык : English
  100. Service kind : Complete Main
  101. Default : Нет
  102. Forced : Нет
  103. Complexity index : 16
  104. Number of dynamic objects : 15
  105. Bed channel count : 1 канал
  106. Bed channel configuration : LFE
  107.  
  108. Текст #1
  109. Идентификатор : 5
  110. Формат : UTF-8
  111. Идентификатор кодека : S_TEXT/UTF8
  112. Идентификатор кодека/Информация : UTF-8 Plain Text
  113. Продолжительность : 2 ч. 32 м.
  114. Битрейт : 4 бит/сек
  115. Count of elements : 129
  116. Размер потока : 5,13 Кбайт (0%)
  117. Заголовок : Forced
  118. Язык : Russian
  119. Default : Да
  120. Forced : Нет
  121.  
  122. Текст #2
  123. Идентификатор : 6
  124. Формат : UTF-8
  125. Идентификатор кодека : S_TEXT/UTF8
  126. Идентификатор кодека/Информация : UTF-8 Plain Text
  127. Продолжительность : 2 ч. 33 м.
  128. Битрейт : 65 бит/сек
  129. Count of elements : 1542
  130. Размер потока : 74,1 Кбайт (0%)
  131. Заголовок : Full
  132. Язык : Russian
  133. Default : Нет
  134. Forced : Нет
  135.  
  136. Текст #3
  137. Идентификатор : 7
  138. Формат : UTF-8
  139. Идентификатор кодека : S_TEXT/UTF8
  140. Идентификатор кодека/Информация : UTF-8 Plain Text
  141. Продолжительность : 2 ч. 32 м.
  142. Битрейт : 1 бит/сек
  143. Count of elements : 81
  144. Размер потока : 1,78 Кбайт (0%)
  145. Заголовок : Forced
  146. Язык : English
  147. Default : Нет
  148. Forced : Нет
  149.  
  150. Текст #4
  151. Идентификатор : 8
  152. Формат : UTF-8
  153. Идентификатор кодека : S_TEXT/UTF8
  154. Идентификатор кодека/Информация : UTF-8 Plain Text
  155. Продолжительность : 2 ч. 33 м.
  156. Битрейт : 41 бит/сек
  157. Count of elements : 1784
  158. Размер потока : 46,6 Кбайт (0%)
  159. Заголовок : Full
  160. Язык : English
  161. Default : Нет
  162. Forced : Нет
  163.  
  164. Текст #5
  165. Идентификатор : 9
  166. Формат : UTF-8
  167. Идентификатор кодека : S_TEXT/UTF8
  168. Идентификатор кодека/Информация : UTF-8 Plain Text
  169. Продолжительность : 2 ч. 33 м.
  170. Битрейт : 50 бит/сек
  171. Count of elements : 2165
  172. Размер потока : 56,9 Кбайт (0%)
  173. Заголовок : SDH
  174. Язык : English
  175. Default : Нет
  176. Forced : Нет
Advertisement
Advertisement
Advertisement
RAW Paste Data Copied
Advertisement