mft39anton

Untitled

Feb 23rd, 2013
36
Never
Not a member of Pastebin yet? Sign Up, it unlocks many cool features!
  1. Disc Title: DISC_12
  2. Disc Size: 15 907 382 564 bytes
  3. Protection: AACS
  4. BD-Java: No
  5. BDInfo: 0.5.8
  6.  
  7. Notes:
  8.  
  9. BDINFO HOME:
  10. Cinema Squid
  11. http://www.cinemasquid.com/blu-ray/tools/bdinfo
  12.  
  13. INCLUDES FORUMS REPORT FOR:
  14. AVS Forum Blu-ray Audio and Video Specifications Thread
  15. http://www.avsforum.com/avs-vb/showthread.php?t=1155731
  16.  
  17.  
  18. ********************
  19. PLAYLIST: 00002.MPLS
  20. ********************
  21.  
  22. <--- BEGIN FORUMS PASTE --->
  23. [code]
  24. Total Video
  25. Title Codec Length Movie Size Disc Size Bitrate Bitrate Main Audio Track Secondary Audio Track
  26. ----- ------ ------- -------------- -------------- ------- ------- ------------------ ---------------------
  27. 00002.MPLS AVC 0:26:34 7 914 866 688 15 907 382 564 39,70 35,00 DTS-HD Master 5.1 2175Kbps (48kHz/16-bit)
  28. [/code]
  29.  
  30. [code]
  31.  
  32. DISC INFO:
  33.  
  34. Disc Title: DISC_12
  35. Disc Size: 15 907 382 564 bytes
  36. Protection: AACS
  37. BD-Java: No
  38. BDInfo: 0.5.8
  39.  
  40. PLAYLIST REPORT:
  41.  
  42. Name: 00002.MPLS
  43. Length: 0:26:34.926 (h:m:s.ms)
  44. Size: 7 914 866 688 bytes
  45. Total Bitrate: 39,70 Mbps
  46.  
  47. VIDEO:
  48.  
  49. Codec Bitrate Description
  50. ----- ------- -----------
  51. MPEG-4 AVC Video 34999 kbps 1080i / 29,970 fps / 16:9 / High Profile 4.1
  52.  
  53. AUDIO:
  54.  
  55. Codec Language Bitrate Description
  56. ----- -------- ------- -----------
  57. DTS-HD Master Audio English 2175 kbps 5.1 / 48 kHz / 2175 kbps / 16-bit (DTS Core: 5.1 / 48 kHz / 1509 kbps / 16-bit)
  58. Dolby Digital Audio English 384 kbps 2.0 / 48 kHz / 384 kbps / DN -4dB
  59.  
  60. SUBTITLES:
  61.  
  62. Codec Language Bitrate Description
  63. ----- -------- ------- -----------
  64. Presentation Graphics English 49,186 kbps
  65. Presentation Graphics Chinese 49,820 kbps
  66. Presentation Graphics Chinese 50,419 kbps
  67.  
  68. FILES:
  69.  
  70. Name Time In Length Size Total Bitrate
  71. ---- ------- ------ ---- -------------
  72. 00002.M2TS 0:00:00.000 0:26:34.926 7 914 866 688 39 700
  73.  
  74. CHAPTERS:
  75.  
  76. Number Time In Length Avg Video Rate Max 1-Sec Rate Max 1-Sec Time Max 5-Sec Rate Max 5-Sec Time Max 10Sec Rate Max 10Sec Time Avg Frame Size Max Frame Size Max Frame Time
  77. ------ ------- ------ -------------- -------------- -------------- -------------- -------------- -------------- -------------- -------------- -------------- --------------
  78. 1 0:00:00.000 0:07:01.487 35 025 kbps 44 374 kbps 00:00:03.269 38 337 kbps 00:00:00.567 36 566 kbps 00:00:01.801 146 071 bytes 504 879 bytes 00:00:01.034
  79. 2 0:07:01.487 0:04:58.364 34 994 kbps 47 091 kbps 00:08:15.528 37 512 kbps 00:08:31.744 36 385 kbps 00:08:27.006 145 953 bytes 503 442 bytes 00:11:22.581
  80. 3 0:11:59.852 0:03:03.883 34 986 kbps 41 216 kbps 00:13:16.495 37 444 kbps 00:13:16.562 36 212 kbps 00:13:11.524 145 922 bytes 489 680 bytes 00:12:58.310
  81. 4 0:15:03.736 0:04:56.796 35 019 kbps 43 045 kbps 00:18:28.507 37 270 kbps 00:18:25.204 36 083 kbps 00:16:10.803 146 057 bytes 546 435 bytes 00:19:13.752
  82. 5 0:20:00.532 0:06:34.394 34 965 kbps 41 632 kbps 00:21:11.637 37 270 kbps 00:21:09.968 36 207 kbps 00:24:11.683 145 844 bytes 461 522 bytes 00:23:46.324
  83.  
  84. STREAM DIAGNOSTICS:
  85.  
  86. File PID Type Codec Language Seconds Bitrate Bytes Packets
  87. ---- --- ---- ----- -------- -------------- -------------- ------------- -----
  88. 00002.M2TS 4113 (0x1011) 0x1B AVC 1594,793 35 001 6 977 518 249 37 949 425
  89. 00002.M2TS 4352 (0x1100) 0x86 DTS-HD MA eng (English) 1594,793 2 176 433 718 224 2 605 011
  90. 00002.M2TS 4353 (0x1101) 0x81 AC3 eng (English) 1594,793 384 76 557 312 448 578
  91. 00002.M2TS 4608 (0x1200) 0x90 PGS zho (Chinese) 1594,793 50 9 932 399 55 576
  92. 00002.M2TS 4609 (0x1201) 0x90 PGS zho (Chinese) 1594,793 50 10 051 897 56 230
  93. 00002.M2TS 4610 (0x1202) 0x90 PGS eng (English) 1594,793 49 9 806 007 54 976
  94.  
  95. [/code]
  96. <---- END FORUMS PASTE ---->
  97.  
  98.  
  99. ********************
  100. PLAYLIST: 00005.MPLS
  101. ********************
  102.  
  103. <--- BEGIN FORUMS PASTE --->
  104. [code]
  105. Total Video
  106. Title Codec Length Movie Size Disc Size Bitrate Bitrate Main Audio Track Secondary Audio Track
  107. ----- ------ ------- -------------- -------------- ------- ------- ------------------ ---------------------
  108. 00005.MPLS AVC 0:25:46 7 673 192 448 15 907 382 564 39,69 35,00 DTS-HD Master 5.1 2141Kbps (48kHz/16-bit)
  109. [/code]
  110.  
  111. [code]
  112.  
  113. DISC INFO:
  114.  
  115. Disc Title: DISC_12
  116. Disc Size: 15 907 382 564 bytes
  117. Protection: AACS
  118. BD-Java: No
  119. BDInfo: 0.5.8
  120.  
  121. PLAYLIST REPORT:
  122.  
  123. Name: 00005.MPLS
  124. Length: 0:25:46.678 (h:m:s.ms)
  125. Size: 7 673 192 448 bytes
  126. Total Bitrate: 39,69 Mbps
  127.  
  128. VIDEO:
  129.  
  130. Codec Bitrate Description
  131. ----- ------- -----------
  132. MPEG-4 AVC Video 34999 kbps 1080i / 29,970 fps / 16:9 / High Profile 4.1
  133.  
  134. AUDIO:
  135.  
  136. Codec Language Bitrate Description
  137. ----- -------- ------- -----------
  138. DTS-HD Master Audio English 2141 kbps 5.1 / 48 kHz / 2141 kbps / 16-bit (DTS Core: 5.1 / 48 kHz / 1509 kbps / 16-bit)
  139. Dolby Digital Audio English 384 kbps 2.0 / 48 kHz / 384 kbps / DN -4dB
  140.  
  141. SUBTITLES:
  142.  
  143. Codec Language Bitrate Description
  144. ----- -------- ------- -----------
  145. Presentation Graphics Chinese 49,976 kbps
  146. Presentation Graphics Chinese 50,478 kbps
  147. Presentation Graphics Chinese 71,874 kbps
  148.  
  149. FILES:
  150.  
  151. Name Time In Length Size Total Bitrate
  152. ---- ------- ------ ---- -------------
  153. 00007.M2TS 0:00:00.000 0:25:46.678 7 673 192 448 39 689
  154.  
  155. CHAPTERS:
  156.  
  157. Number Time In Length Avg Video Rate Max 1-Sec Rate Max 1-Sec Time Max 5-Sec Rate Max 5-Sec Time Max 10Sec Rate Max 10Sec Time Avg Frame Size Max Frame Size Max Frame Time
  158. ------ ------- ------ -------------- -------------- -------------- -------------- -------------- -------------- -------------- -------------- -------------- --------------
  159. 1 0:00:00.000 0:05:13.212 35 017 kbps 43 714 kbps 00:00:03.136 38 423 kbps 00:00:00.834 36 557 kbps 00:02:26.112 146 037 bytes 576 963 bytes 00:03:39.152
  160. 2 0:05:13.212 0:05:39.772 35 006 kbps 42 143 kbps 00:08:17.964 37 177 kbps 00:09:08.314 36 085 kbps 00:08:09.956 146 004 bytes 505 966 bytes 00:10:38.871
  161. 3 0:10:52.985 0:02:58.211 35 010 kbps 42 603 kbps 00:13:35.147 37 438 kbps 00:13:20.199 36 199 kbps 00:13:15.194 146 020 bytes 495 418 bytes 00:11:49.542
  162. 4 0:13:51.197 0:07:20.306 35 000 kbps 41 653 kbps 00:19:30.435 37 626 kbps 00:17:28.113 36 579 kbps 00:18:47.593 145 980 bytes 510 432 bytes 00:20:46.211
  163. 5 0:21:11.503 0:04:35.174 34 958 kbps 41 888 kbps 00:23:31.243 36 972 kbps 00:21:54.680 36 413 kbps 00:23:07.319 145 821 bytes 534 361 bytes 00:23:08.353
  164.  
  165. STREAM DIAGNOSTICS:
  166.  
  167. File PID Type Codec Language Seconds Bitrate Bytes Packets
  168. ---- --- ---- ----- -------- -------------- -------------- ------------- -----
  169. 00007.M2TS 4113 (0x1011) 0x1B AVC 1546,612 35 000 6 766 436 618 36 801 300
  170. 00007.M2TS 4352 (0x1100) 0x86 DTS-HD MA eng (English) 1546,612 2 141 414 007 176 2 490 721
  171. 00007.M2TS 4353 (0x1101) 0x81 AC3 eng (English) 1546,612 384 74 239 488 434 997
  172. 00007.M2TS 4608 (0x1200) 0x90 PGS zho (Chinese) 1546,612 50 9 662 154 53 968
  173. 00007.M2TS 4609 (0x1201) 0x90 PGS zho (Chinese) 1546,612 50 9 759 177 54 499
  174. 00007.M2TS 4610 (0x1202) 0x90 PGS zho (Chinese) 1546,612 72 13 895 803 77 210
  175.  
  176. [/code]
  177. <---- END FORUMS PASTE ---->
  178.  
  179.  
  180. ********************
  181. PLAYLIST: 00003.MPLS
  182. ********************
  183.  
  184. <--- BEGIN FORUMS PASTE --->
  185. [code]
  186. Total Video
  187. Title Codec Length Movie Size Disc Size Bitrate Bitrate Main Audio Track Secondary Audio Track
  188. ----- ------ ------- -------------- -------------- ------- ------- ------------------ ---------------------
  189. 00003.MPLS MPEG-2 0:00:49 218 044 416 15 907 382 564 35,32 32,00 LPCM 2.0 1536Kbps (48kHz/16-bit)
  190. [/code]
  191.  
  192. [code]
  193.  
  194. DISC INFO:
  195.  
  196. Disc Title: DISC_12
  197. Disc Size: 15 907 382 564 bytes
  198. Protection: AACS
  199. BD-Java: No
  200. BDInfo: 0.5.8
  201.  
  202. PLAYLIST REPORT:
  203.  
  204. Name: 00003.MPLS
  205. Length: 0:00:49.382 (h:m:s.ms)
  206. Size: 218 044 416 bytes
  207. Total Bitrate: 35,32 Mbps
  208.  
  209. VIDEO:
  210.  
  211. Codec Bitrate Description
  212. ----- ------- -----------
  213. MPEG-2 Video 32000 kbps 1080i / 29,970 fps / 16:9
  214.  
  215. AUDIO:
  216.  
  217. Codec Language Bitrate Description
  218. ----- -------- ------- -----------
  219. LPCM Audio English 1536 kbps 2.0 / 48 kHz / 1536 kbps / 16-bit
  220.  
  221. FILES:
  222.  
  223. Name Time In Length Size Total Bitrate
  224. ---- ------- ------ ---- -------------
  225. 00003.M2TS 0:00:00.000 0:00:49.382 218 044 416 35 323
  226.  
  227. CHAPTERS:
  228.  
  229. Number Time In Length Avg Video Rate Max 1-Sec Rate Max 1-Sec Time Max 5-Sec Rate Max 5-Sec Time Max 10Sec Rate Max 10Sec Time Avg Frame Size Max Frame Size Max Frame Time
  230. ------ ------- ------ -------------- -------------- -------------- -------------- -------------- -------------- -------------- -------------- -------------- --------------
  231. 1 0:00:00.000 0:00:49.382 32 000 kbps 35 378 kbps 00:00:37.203 32 898 kbps 00:00:11.945 32 385 kbps 00:00:28.094 133 467 bytes 604 926 bytes 00:00:26.826
  232.  
  233. STREAM DIAGNOSTICS:
  234.  
  235. File PID Type Codec Language Seconds Bitrate Bytes Packets
  236. ---- --- ---- ----- -------- -------------- -------------- ------------- -----
  237. 00003.M2TS 4113 (0x1011) 0x02 MPEG-2 49,316 32 043 197 530 538 1 074 411
  238. 00003.M2TS 4352 (0x1100) 0x80 LPCM eng (English) 49,316 1 552 9 566 736 59 544
  239.  
  240. [/code]
  241. <---- END FORUMS PASTE ---->
  242.  
  243.  
  244. ********************
  245. PLAYLIST: 00001.MPLS
  246. ********************
  247.  
  248. <--- BEGIN FORUMS PASTE --->
  249. [code]
  250. Total Video
  251. Title Codec Length Movie Size Disc Size Bitrate Bitrate Main Audio Track Secondary Audio Track
  252. ----- ------ ------- -------------- -------------- ------- ------- ------------------ ---------------------
  253. 00001.MPLS AVC 0:00:09 45 213 696 15 907 382 564 36,26 29,76 LPCM 5.1 4608Kbps (48kHz/16-bit)
  254. [/code]
  255.  
  256. [code]
  257.  
  258. DISC INFO:
  259.  
  260. Disc Title: DISC_12
  261. Disc Size: 15 907 382 564 bytes
  262. Protection: AACS
  263. BD-Java: No
  264. BDInfo: 0.5.8
  265.  
  266. PLAYLIST REPORT:
  267.  
  268. Name: 00001.MPLS
  269. Length: 0:00:09.976 (h:m:s.ms)
  270. Size: 45 213 696 bytes
  271. Total Bitrate: 36,26 Mbps
  272.  
  273. VIDEO:
  274.  
  275. Codec Bitrate Description
  276. ----- ------- -----------
  277. MPEG-4 AVC Video 29760 kbps 1080i / 29,970 fps / 16:9 / High Profile 4.1
  278.  
  279. AUDIO:
  280.  
  281. Codec Language Bitrate Description
  282. ----- -------- ------- -----------
  283. LPCM Audio Chinese 4608 kbps 5.1 / 48 kHz / 4608 kbps / 16-bit
  284.  
  285. FILES:
  286.  
  287. Name Time In Length Size Total Bitrate
  288. ---- ------- ------ ---- -------------
  289. 00001.M2TS 0:00:00.000 0:00:09.976 45 213 696 36 256
  290.  
  291. CHAPTERS:
  292.  
  293. Number Time In Length Avg Video Rate Max 1-Sec Rate Max 1-Sec Time Max 5-Sec Rate Max 5-Sec Time Max 10Sec Rate Max 10Sec Time Avg Frame Size Max Frame Size Max Frame Time
  294. ------ ------- ------ -------------- -------------- -------------- -------------- -------------- -------------- -------------- -------------- -------------- --------------
  295. 1 0:00:00.000 0:00:09.976 29 760 kbps 50 980 kbps 00:00:00.667 32 317 kbps 00:00:00.667 0 kbps 00:00:00.000 124 122 bytes 364 560 bytes 00:00:01.101
  296.  
  297. STREAM DIAGNOSTICS:
  298.  
  299. File PID Type Codec Language Seconds Bitrate Bytes Packets
  300. ---- --- ---- ----- -------- -------------- -------------- ------------- -----
  301. 00001.M2TS 4113 (0x1011) 0x1B AVC 9,910 29 960 37 112 572 202 094
  302. 00001.M2TS 4352 (0x1100) 0x80 LPCM zho (Chinese) 9,910 4 805 5 952 576 33 024
  303.  
  304. [/code]
  305. <---- END FORUMS PASTE ---->
  306.  
  307.  
  308. ********************
  309. PLAYLIST: 00000.MPLS
  310. ********************
  311.  
  312. <--- BEGIN FORUMS PASTE --->
  313. [code]
  314. Total Video
  315. Title Codec Length Movie Size Disc Size Bitrate Bitrate Main Audio Track Secondary Audio Track
  316. ----- ------ ------- -------------- -------------- ------- ------- ------------------ ---------------------
  317. 00000.MPLS MPEG-2 0:00:07 36 575 232 15 907 382 564 41,80 39,98
  318. [/code]
  319.  
  320. [code]
  321.  
  322. DISC INFO:
  323.  
  324. Disc Title: DISC_12
  325. Disc Size: 15 907 382 564 bytes
  326. Protection: AACS
  327. BD-Java: No
  328. BDInfo: 0.5.8
  329.  
  330. PLAYLIST REPORT:
  331.  
  332. Name: 00000.MPLS
  333. Length: 0:00:07.000 (h:m:s.ms)
  334. Size: 36 575 232 bytes
  335. Total Bitrate: 41,80 Mbps
  336.  
  337. VIDEO:
  338.  
  339. Codec Bitrate Description
  340. ----- ------- -----------
  341. MPEG-2 Video 39976 kbps 1080p / 24 fps / 16:9
  342.  
  343. FILES:
  344.  
  345. Name Time In Length Size Total Bitrate
  346. ---- ------- ------ ---- -------------
  347. 00000.M2TS 0:00:00.000 0:00:07.000 36 575 232 41 800
  348.  
  349. CHAPTERS:
  350.  
  351. Number Time In Length Avg Video Rate Max 1-Sec Rate Max 1-Sec Time Max 5-Sec Rate Max 5-Sec Time Max 10Sec Rate Max 10Sec Time Avg Frame Size Max Frame Size Max Frame Time
  352. ------ ------- ------ -------------- -------------- -------------- -------------- -------------- -------------- -------------- -------------- -------------- --------------
  353. 1 0:00:00.000 0:00:07.000 39 976 kbps 40 798 kbps 00:00:01.458 40 000 kbps 00:00:01.958 0 kbps 00:00:00.000 208 209 bytes 312 213 bytes 00:00:02.500
  354.  
  355. STREAM DIAGNOSTICS:
  356.  
  357. File PID Type Codec Language Seconds Bitrate Bytes Packets
  358. ---- --- ---- ----- -------- -------------- -------------- ------------- -----
  359. 00000.M2TS 4113 (0x1011) 0x02 MPEG-2 6,875 40 703 34 979 048 190 225
  360.  
  361. [/code]
  362. <---- END FORUMS PASTE ---->
RAW Paste Data