Henry_Kr

IJL-2021

Oct 10th, 2021 (edited)
70
Never
Not a member of Pastebin yet? Sign Up, it unlocks many cool features!
  1. Video
  2. ID : 1
  3. Format : AVC
  4. Format/Info : Advanced Video Codec
  5. Format profile : High@L4.1
  6. Format settings : CABAC / 4 Ref Frames
  7. Format settings, CABAC : Yes
  8. Format settings, Reference : 4 frames
  9. Muxing mode : Header stripping
  10. Codec ID : V_MPEG4/ISO/AVC
  11. Duration : 1 h 18 min
  12. Bit rate : 11.7 Mb/s
  13. Width : 1 920 pixels
  14. Height : 1 080 pixels
  15. Display aspect ratio : 16:9
  16. Frame rate mode : Constant
  17. Frame rate : 23.976 (24000/1001) FPS
  18. Color space : YUV
  19. Chroma subsampling : 4:2:0
  20. Bit depth : 8 bits
  21. Scan type : Progressive
  22. Bits/(Pixel*Frame) : 0.234
  23. Stream size : 6.40 GiB (84%)
  24. Title : Injustice.2021.1080p.PROPER.BluRay.[CartoonNOW]
  25. Writing library : x264 core 157 r2938 2b00a84 TnP@MTeam Mod
  26. Encoding settings : cabac=1 / ref=4 / deblock=1:-3:-3 / analyse=0x3:0x133 / me=umh / subme=10 / psy=1 / psy_rd=1.05:0.00 / mixed_ref=1 / me_range=32 / chroma_me=1 / trellis=2 / 8x8dct=1 / cqm=0 / deadzone=21,11 / fast_pskip=0 / chroma_qp_offset=-2 / threads=12 / lookahead_threads=2 / sliced_threads=0 / nr=0 / decimate=0 / interlaced=0 / bluray_compat=0 / constrained_intra=0 / bframes=8 / b_pyramid=2 / b_adapt=2 / b_bias=0 / direct=3 / weightb=1 / open_gop=0 / weightp=2 / keyint=250 / keyint_min=24 / scenecut=40 / intra_refresh=0 / rc_lookahead=250 / rc=crf / mbtree=0 / crf=16.8 / qcomp=0.60 / qpmin=0 / qpmax=69 / qpstep=4 / vbv_maxrate=62500 / vbv_bufsize=78125 / crf_max=0.0 / nal_hrd=none / filler=0 / ip_ratio=1.30 / pb_ratio=1.20 / aq=3:0.80
  27. Language : English
  28. Default : Yes
  29. Forced : No
  30. Color range : Limited
  31. Color primaries : BT.709
  32. Matrix coefficients : BT.709
  33.  
  34. Audio #1
  35. ID : 2
  36. Format : E-AC-3
  37. Format/Info : Enhanced AC-3
  38. Commercial name : Dolby Digital Plus
  39. Muxing mode : Header stripping
  40. Codec ID : A_EAC3
  41. Duration : 1 h 18 min
  42. Bit rate mode : Constant
  43. Bit rate : 384 kb/s
  44. Channel(s) : 6 channels
  45. Channel layout : L R C LFE Ls Rs
  46. Sampling rate : 48.0 kHz
  47. Frame rate : 31.250 FPS (1536 SPF)
  48. Compression mode : Lossy
  49. Stream size : 216 MiB (3%)
  50. Title : E-AC3 5.1
  51. Language : Portuguese
  52. Service kind : Complete Main
  53. Default : Yes
  54. Forced : No
  55.  
  56. Audio #2
  57. ID : 3
  58. Format : DTS
  59. Format/Info : Digital Theater Systems
  60. Muxing mode : Header stripping
  61. Codec ID : A_DTS
  62. Duration : 1 h 18 min
  63. Bit rate mode : Constant
  64. Bit rate : 1 509 kb/s
  65. Channel(s) : 6 channels
  66. Channel layout : C L R Ls Rs LFE
  67. Sampling rate : 48.0 kHz
  68. Frame rate : 93.750 FPS (512 SPF)
  69. Bit depth : 24 bits
  70. Compression mode : Lossy
  71. Stream size : 848 MiB (11%)
  72. Title : DTS 5.1
  73. Language : English
  74. Default : No
  75. Forced : No
  76.  
  77. Text
  78. ID : 4
  79. Format : UTF-8
  80. Codec ID : S_TEXT/UTF8
  81. Codec ID/Info : UTF-8 Plain Text
  82. Title : Completa
  83. Language : Portuguese
  84. Default : No
  85. Forced : No
  86.  
  87. Menu
  88. 00:00:00.000 : en:Chapter 01
  89. 00:02:32.986 : en:Chapter 02
  90. 00:11:20.430 : en:Chapter 03
  91. 00:18:43.956 : en:Chapter 04
  92. 00:25:14.847 : en:Chapter 05
  93. 00:33:41.519 : en:Chapter 06
  94. 00:43:12.465 : en:Chapter 07
  95. 00:52:17.092 : en:Chapter 08
  96. 01:00:00.972 : en:Chapter 09
  97. 01:09:52.271 : en:Chapter 10
  98. 01:15:57.303 : en:Chapter 11
RAW Paste Data