SHARE
TWEET

2012_The_Vow_Blu-Ray_1080P_DuaL_X265_10Bits_Slower_ChrisHD

ChrisHD13 Jun 10th, 2019 94 Never
Not a member of Pastebin yet? Sign Up, it unlocks many cool features!
  1. Complete name               : C:\\2012_The_Vow_Blu-Ray_1080P_DuaL_X265_10Bits_Slower_ChrisHD.mkv
  2. Format                      : Matroska
  3. Format version              : Version 4 / Version 2
  4. File size                   : 4.97 GiB
  5. Duration                    : 1 h 43 min
  6. Overall bit rate            : 6 853 kb/s
  7. Encoded date                : UTC 2017-11-02 22:44:15
  8. Writing application         : mkvmerge v16.0.0 ('Protest') 64-bit
  9. Writing library             : libebml v1.3.5 + libmatroska v1.4.8
  10.  
  11. Video
  12. ID                          : 1
  13. Format                      : HEVC
  14. Format/Info                 : High Efficiency Video Coding
  15. Format profile              : Main 10@L4@Main
  16. Codec ID                    : V_MPEGH/ISO/HEVC
  17. Duration                    : 1 h 43 min
  18. Bit rate                    : 4 691 kb/s
  19. Width                       : 1 920 pixels
  20. Height                      : 1 080 pixels
  21. Display aspect ratio        : 16:9
  22. Frame rate mode             : Constant
  23. Frame rate                  : 23.976 (24000/1001) FPS
  24. Color space                 : YUV
  25. Chroma subsampling          : 4:2:0
  26. Bit depth                   : 10 bits
  27. Bits/(Pixel*Frame)          : 0.094
  28. Stream size                 : 3.40 GiB (68%)
  29. Title                       : BD50 - ChrisHD
  30. Writing library             : x265 2.2+2-998d4520d1cf:[Windows][GCC 6.2.0][64 bit] 10bit
  31. Encoding settings           : cpuid=1173503 / frame-threads=3 / numa-pools=8 / wpp / no-pmode / no-pme / no-psnr / no-ssim / log-level=2 / input-csp=1 / input-res=1920x1080 / interlace=0 / total-frames=149472 / level-idc=0 / high-tier=1 / uhd-bd=0 / ref=4 / no-allow-non-conformance / no-repeat-headers / annexb / no-aud / no-hrd / info / hash=0 / no-temporal-layers / open-gop / min-keyint=23 / keyint=250 / bframes=8 / b-adapt=2 / b-pyramid / bframe-bias=0 / rc-lookahead=30 / lookahead-slices=4 / scenecut=40 / no-intra-refresh / ctu=64 / min-cu-size=8 / rect / amp / max-tu-size=32 / tu-inter-depth=2 / tu-intra-depth=2 / limit-tu=0 / rdoq-level=2 / signhide / no-tskip / nr-intra=0 / nr-inter=0 / no-constrained-intra / strong-intra-smoothing / max-merge=3 / limit-refs=2 / limit-modes / me=3 / subme=3 / merange=57 / temporal-mvp / weightp / weightb / no-analyze-src-pics / deblock=0:0 / sao / no-sao-non-deblock / rd=6 / no-early-skip / rskip / no-fast-intra / no-tskip-fast / no-cu-lossless / b-intra / rdpenalty=0 / psy-rd=2.00 / psy-rdoq=1.00 / no-rd-refine / analysis-mode=0 / no-lossless / cbqpoffs=0 / crqpoffs=0 / rc=crf / crf=20.0 / qcomp=0.60 / qpstep=4 / stats-write=0 / stats-read=0 / ipratio=1.40 / pbratio=1.30 / aq-mode=1 / aq-strength=1.00 / cutree / zone-count=0 / no-strict-cbr / qg-size=32 / no-rc-grain / qpmax=69 / qpmin=0 / sar=1 / overscan=0 / videoformat=5 / range=0 / colorprim=2 / transfer=2 / colormatrix=2 / chromaloc=0 / display-window=0 / max-cll=0,0 / min-luma=0 / max-luma=1023 / log2-max-poc-lsb=8 / vui-timing-info / vui-hrd-info / slices=1 / opt-qp-pps / opt-ref-list-length-pps / no-multi-pass-opt-rps / scenecut-bias=0.05
  32. Default                     : Yes
  33. Forced                      : No
  34.  
  35. Audio #1
  36. ID                          : 2
  37. Format                      : DTS
  38. Format/Info                 : Digital Theater Systems
  39. Codec ID                    : A_DTS
  40. Duration                    : 1 h 43 min
  41. Bit rate mode               : Constant
  42. Bit rate                    : 1 509 kb/s
  43. Channel(s)                  : 6 channels
  44. Channel positions           : Front: L C R, Side: L R, LFE
  45. Sampling rate               : 48.0 kHz
  46. Frame rate                  : 93.750 FPS (512 SPF)
  47. Bit depth                   : 24 bits
  48. Compression mode            : Lossy
  49. Stream size                 : 1.10 GiB (22%)
  50. Title                       : Ingles - ChrisHD
  51. Language                    : English
  52. Default                     : Yes
  53. Forced                      : No
  54.  
  55. Audio #2
  56. ID                          : 3
  57. Format                      : AC-3
  58. Format/Info                 : Audio Coding 3
  59. Codec ID                    : A_AC3
  60. Duration                    : 1 h 43 min
  61. Bit rate mode               : Constant
  62. Bit rate                    : 640 kb/s
  63. Channel(s)                  : 6 channels
  64. Channel positions           : Front: L C R, Side: L R, LFE
  65. Sampling rate               : 48.0 kHz
  66. Frame rate                  : 31.250 FPS (1536 SPF)
  67. Bit depth                   : 16 bits
  68. Compression mode            : Lossy
  69. Stream size                 : 476 MiB (9%)
  70. Title                       : Latino - ChrisHD
  71. Language                    : Spanish
  72. Service kind                : Complete Main
  73. Default                     : No
  74. Forced                      : No
  75.  
  76. Text #1
  77. ID                          : 4
  78. Format                      : UTF-8
  79. Codec ID                    : S_TEXT/UTF8
  80. Codec ID/Info               : UTF-8 Plain Text
  81. Duration                    : 1 h 42 min
  82. Bit rate                    : 53 b/s
  83. Count of elements           : 1233
  84. Stream size                 : 40.3 KiB (0%)
  85. Title                       : Latino - ChrisHD [SRT]
  86. Language                    : Spanish
  87. Default                     : Yes
  88. Forced                      : No
  89.  
  90. Text #2
  91. ID                          : 5
  92. Format                      : PGS
  93. Muxing mode                 : zlib
  94. Codec ID                    : S_HDMV/PGS
  95. Codec ID/Info               : Picture based subtitle format used on BDs/HD-DVDs
  96. Duration                    : 1 h 42 min
  97. Bit rate                    : 34.0 kb/s
  98. Count of elements           : 2476
  99. Stream size                 : 25.0 MiB (0%)
  100. Title                       : Latino - ChrisHD [PGS]
  101. Language                    : Spanish
  102. Default                     : No
  103. Forced                      : No
  104.  
  105. Menu
  106. 00:00:00.000                : en:00:00:00.000
  107. 00:05:52.227                : en:00:05:52.227
  108. 00:12:29.374                : en:00:12:29.374
  109. 00:19:11.692                : en:00:19:11.692
  110. 00:24:05.069                : en:00:24:05.069
  111. 00:30:17.607                : en:00:30:17.607
  112. 00:35:57.614                : en:00:35:57.614
  113. 00:40:13.786                : en:00:40:13.786
  114. 00:46:33.833                : en:00:46:33.833
  115. 00:52:19.762                : en:00:52:19.762
  116. 00:59:32.569                : en:00:59:32.569
  117. 01:05:19.415                : en:01:05:19.415
  118. 01:11:59.815                : en:01:11:59.815
  119. 01:20:39.501                : en:01:20:39.501
  120. 01:29:02.963                : en:01:29:02.963
  121. 01:34:14.774                : en:01:34:14.774
RAW Paste Data
We use cookies for various purposes including analytics. By continuing to use Pastebin, you agree to our use of cookies as described in the Cookies Policy. OK, I Understand
 
Top