Guest User

Mile 22 2018 1080p BluRay DD5.1 x264-iLoveHD

a guest
Nov 17th, 2018
237
Never
Not a member of Pastebin yet? Sign Up, it unlocks many cool features!
  1. General
  2. Unique ID : 133606387861382171760493246147544736872 (0x6483A781256F818B2945BACFEEFBE468)
  3. Complete name : D:\Filmes\Mile 22 2018 1080p BluRay DD5.1 x264-iLoveHD.mkv
  4. Format : Matroska
  5. Format version : Version 4 / Version 2
  6. File size : 10.5 GiB
  7. Duration : 1 h 34 min
  8. Overall bit rate : 15.9 Mb/s
  9. Movie name : Mile 22 2018 1080p BluRay DD5.1 x264-iLoveHD @HellBoy @OurBits
  10. Encoded date : UTC 2018-11-17 08:41:16
  11. Writing application : mkvmerge v28.2.0 ('The Awakening') 64-bit
  12. Writing library : libebml v1.3.6 + libmatroska v1.4.9
  13.  
  14. Video
  15. ID : 1
  16. Format : AVC
  17. Format/Info : Advanced Video Codec
  18. Format profile : High@L4.1
  19. Format settings : CABAC / 5 Ref Frames
  20. Format settings, CABAC : Yes
  21. Format settings, RefFrames : 5 frames
  22. Codec ID : V_MPEG4/ISO/AVC
  23. Duration : 1 h 34 min
  24. Bit rate : 14.9 Mb/s
  25. Width : 1 920 pixels
  26. Height : 800 pixels
  27. Display aspect ratio : 2.40:1
  28. Frame rate mode : Constant
  29. Frame rate : 23.976 (24000/1001) FPS
  30. Color space : YUV
  31. Chroma subsampling : 4:2:0
  32. Bit depth : 8 bits
  33. Scan type : Progressive
  34. Bits/(Pixel*Frame) : 0.405
  35. Stream size : 9.87 GiB (94%)
  36. Title : Mile 22 2018 1080p BluRay DD5.1 x264-iLoveHD
  37. Writing library : x264 core 155 r2867+74 66b5600 t_mod_Custom_2 [8-bit@all X86_64]
  38. Encoding settings : cabac=1 / ref=5 / deblock=1:-3:-3 / analyse=0x3:0x113 / me=umh / subme=11 / psy=1 / fade_compensate=0.00 / psy_rd=1.00:0.00 / mixed_ref=1 / me_range=32 / chroma_me=1 / trellis=2 / 8x8dct=1 / cqm=0 / deadzone=21,11 / fast_pskip=0 / chroma_qp_offset=-2 / threads=12 / lookahead_threads=2 / sliced_threads=0 / nr=0 / decimate=0 / interlaced=0 / bluray_compat=0 / constrained_intra=0 / fgo=0 / bframes=8 / b_pyramid=2 / b_adapt=2 / b_bias=0 / direct=3 / weightb=1 / open_gop=0 / weightp=2 / keyint=250 / keyint_min=23 / scenecut=40 / intra_refresh=0 / rc_lookahead=60 / rc=crf / mbtree=0 / crf=17.6000 / qcomp=0.65 / qpmin=0:0:0 / qpmax=69:69:69 / qpstep=4 / vbv_maxrate=62500 / vbv_bufsize=78125 / crf_max=0.0 / nal_hrd=none / filler=0 / ip_ratio=1.30 / pb_ratio=1.20 / aq=3:0.80 / aq-sensitivity=10.00 / aq-factor=1.00:1.00:1.00 / aq2=0 / aq3=0 / zones=0,1314,crf=12.6/7120,10376,crf=17/12337,13244,crf=17/13574,14081,crf=17/14345,14661,crf=17/52230,52318,crf=14.6/56685,59859,crf=17/66300,66372,crf=14.6/90370,92001,crf=17/103666,111869,crf=17/125333,136184,crf=22.6
  39. Language : English
  40. Default : Yes
  41. Forced : No
  42. Color range : Limited
  43. Color primaries : BT.709
  44. Transfer characteristics : BT.709
  45. Matrix coefficients : BT.709
  46.  
  47. Audio
  48. ID : 2
  49. Format : AC-3
  50. Format/Info : Audio Coding 3
  51. Codec ID : A_AC3
  52. Duration : 1 h 34 min
  53. Bit rate mode : Constant
  54. Bit rate : 640 kb/s
  55. Channel(s) : 6 channels
  56. Channel positions : Front: L C R, Side: L R, LFE
  57. Sampling rate : 48.0 kHz
  58. Frame rate : 31.250 FPS (1536 SPF)
  59. Bit depth : 16 bits
  60. Compression mode : Lossy
  61. Stream size : 433 MiB (4%)
  62. Title : DD5.1 @640 kbps
  63. Language : English
  64. Service kind : Complete Main
  65. Default : Yes
  66. Forced : No
  67.  
  68. Text #1
  69. ID : 3
  70. Format : PGS
  71. Muxing mode : zlib
  72. Codec ID : S_HDMV/PGS
  73. Codec ID/Info : Picture based subtitle format used on BDs/HD-DVDs
  74. Title : Chs
  75. Language : Chinese
  76. Default : Yes
  77. Forced : No
  78.  
  79. Text #2
  80. ID : 4
  81. Format : PGS
  82. Muxing mode : zlib
  83. Codec ID : S_HDMV/PGS
  84. Codec ID/Info : Picture based subtitle format used on BDs/HD-DVDs
  85. Title : Chs/Eng
  86. Language : Chinese
  87. Default : No
  88. Forced : No
  89.  
  90. Text #3
  91. ID : 5
  92. Format : PGS
  93. Muxing mode : zlib
  94. Codec ID : S_HDMV/PGS
  95. Codec ID/Info : Picture based subtitle format used on BDs/HD-DVDs
  96. Title : Cht
  97. Language : Chinese
  98. Default : No
  99. Forced : No
  100.  
  101. Text #4
  102. ID : 6
  103. Format : PGS
  104. Muxing mode : zlib
  105. Codec ID : S_HDMV/PGS
  106. Codec ID/Info : Picture based subtitle format used on BDs/HD-DVDs
  107. Title : Cht/Eng
  108. Language : Chinese
  109. Default : No
  110. Forced : No
  111.  
  112. Text #5
  113. ID : 7
  114. Format : PGS
  115. Muxing mode : zlib
  116. Codec ID : S_HDMV/PGS
  117. Codec ID/Info : Picture based subtitle format used on BDs/HD-DVDs
  118. Title : Forced
  119. Language : English
  120. Default : No
  121. Forced : No
  122.  
  123. Text #6
  124. ID : 8
  125. Format : PGS
  126. Muxing mode : zlib
  127. Codec ID : S_HDMV/PGS
  128. Codec ID/Info : Picture based subtitle format used on BDs/HD-DVDs
  129. Title : SDH
  130. Language : English
  131. Default : No
  132. Forced : No
  133.  
  134. Text #7
  135. ID : 9
  136. Format : PGS
  137. Muxing mode : zlib
  138. Codec ID : S_HDMV/PGS
  139. Codec ID/Info : Picture based subtitle format used on BDs/HD-DVDs
  140. Title : (Canadian)
  141. Language : French
  142. Default : No
  143. Forced : No
  144.  
  145. Menu
  146. 00:00:00.000 : :00:00:00.000
  147. 00:12:06.225 : :00:12:06.225
  148. 00:24:27.925 : :00:24:27.925
  149. 00:36:23.139 : :00:36:23.139
  150. 00:48:42.211 : :00:48:42.211
  151. 01:04:11.264 : :01:04:11.264
  152. 01:17:49.665 : :01:17:49.665
  153. 01:27:14.604 : :01:27:14.604
RAW Paste Data