Guest User

Untitled

a guest
May 3rd, 2017
7,267
0
Never
Not a member of Pastebin yet? Sign Up, it unlocks many cool features!
text 8.41 KB | None | 0 0
  1.  
  2. General
  3. ID : 0 (0x0)
  4. Complete name : X:\The.Smurfs.2.2013.COMPLETE.UHD.BLURAY-THRONE\BDMV\STREAM\00001.m2ts
  5. Format : BDAV
  6. Format/Info : Blu-ray Video
  7. File size : 53.1 GiB
  8. Duration : 1 h 44 min
  9. Overall bit rate mode : Variable
  10. Overall bit rate : 72.5 Mb/s
  11. Maximum Overall bit rate : 109 Mb/s
  12.  
  13. Video
  14. ID : 4113 (0x1011)
  15. Menu ID : 1 (0x1)
  16. Format : HEVC
  17. Format/Info : High Efficiency Video Coding
  18. Format profile : Main 10@L5.1@High
  19. Codec ID : 36
  20. Duration : 1 h 44 min
  21. Width : 3 840 pixels
  22. Height : 2 160 pixels
  23. Display aspect ratio : 16:9
  24. Frame rate : 23.976 (24000/1001) FPS
  25. Color space : YUV
  26. Chroma subsampling : 4:2:0 (Type 2)
  27. Bit depth : 10 bits
  28. Color range : Limited
  29. Color primaries : BT.2020
  30. Transfer characteristics : SMPTE ST 2084
  31. Matrix coefficients : BT.2020 non-constant
  32. Mastering display color primaries : R: x=0.680000 y=0.320000, G: x=0.265000 y=0.690000, B: x=0.150000 y=0.060000, White point: x=0.312700 y=0.329000
  33. Mastering display luminance : min: 0.0050 cd/m2, max: 4000.0000 cd/m2
  34. Maximum Content Light Level : 1132 cd/m2
  35. Maximum Frame-Average Light Level : 923 cd/m2
  36.  
  37. Audio #1
  38. ID : 4352 (0x1100)
  39. Menu ID : 1 (0x1)
  40. Format : Atmos / TrueHD / AC-3
  41. Mode extension : CM (complete main)
  42. Format settings, Endianness : Big
  43. Muxing mode : Stream extension
  44. Codec ID : 131
  45. Duration : 1 h 44 min
  46. Bit rate mode : Variable / Constant
  47. Bit rate : 640 kb/s
  48. Maximum bit rate : 8 124 kb/s
  49. Channel(s) : Object Based / 8 channels / 6 channels
  50. Channel positions : Object Based / Front: L C R, Side: L R, Back: L R, LFE / Front: L C R, Side: L R, LFE
  51. Sampling rate : / 48.0 kHz / 48.0 kHz
  52. Frame rate : 31.250 FPS (1536 spf)
  53. Bit depth : 16 bits
  54. Stream size : 480 MiB (1%)
  55.  
  56. Audio #2
  57. ID : 4353 (0x1101)
  58. Menu ID : 1 (0x1)
  59. Format : AC-3
  60. Format/Info : Audio Coding 3
  61. Mode extension : CM (complete main)
  62. Format settings, Endianness : Big
  63. Codec ID : 129
  64. Duration : 1 h 44 min
  65. Bit rate mode : Constant
  66. Bit rate : 640 kb/s
  67. Channel(s) : 6 channels
  68. Channel positions : Front: L C R, Side: L R, LFE
  69. Sampling rate : 48.0 kHz
  70. Frame rate : 31.250 FPS (1536 spf)
  71. Bit depth : 16 bits
  72. Compression mode : Lossy
  73. Delay relative to video : -8 ms
  74. Stream size : 480 MiB (1%)
  75.  
  76. Audio #3
  77. ID : 4354 (0x1102)
  78. Menu ID : 1 (0x1)
  79. Format : DTS
  80. Format/Info : Digital Theater Systems
  81. Format profile : MA / Core
  82. Mode : 16
  83. Format settings, Endianness : Big
  84. Muxing mode : Stream extension
  85. Codec ID : 134
  86. Duration : 1 h 44 min
  87. Bit rate mode : Variable / Constant
  88. Bit rate : Unknown / 1 509 kb/s
  89. Channel(s) : 6 channels
  90. Channel positions : Front: L C R, Side: L R, LFE
  91. Sampling rate : 48.0 kHz
  92. Frame rate : 93.750 FPS (512 spf)
  93. Bit depth : 16 bits
  94. Compression mode : Lossless / Lossy
  95.  
  96. Audio #4
  97. ID : 4355 (0x1103)
  98. Menu ID : 1 (0x1)
  99. Format : AC-3
  100. Format/Info : Audio Coding 3
  101. Format profile : Dolby Digital
  102. Mode extension : CM (complete main)
  103. Format settings, Endianness : Big
  104. Codec ID : 129
  105. Duration : 1 h 44 min
  106. Bit rate mode : Constant
  107. Bit rate : 192 kb/s
  108. Channel(s) : 2 channels
  109. Channel positions : Front: L R
  110. Sampling rate : 48.0 kHz
  111. Frame rate : 31.250 FPS (1536 spf)
  112. Bit depth : 16 bits
  113. Compression mode : Lossy
  114. Delay relative to video : -8 ms
  115. Stream size : 144 MiB (0%)
  116.  
  117. Audio #5
  118. ID : 4356 (0x1104)
  119. Menu ID : 1 (0x1)
  120. Format : AC-3
  121. Format/Info : Audio Coding 3
  122. Mode extension : CM (complete main)
  123. Format settings, Endianness : Big
  124. Codec ID : 129
  125. Duration : 1 h 44 min
  126. Bit rate mode : Constant
  127. Bit rate : 640 kb/s
  128. Channel(s) : 6 channels
  129. Channel positions : Front: L C R, Side: L R, LFE
  130. Sampling rate : 48.0 kHz
  131. Frame rate : 31.250 FPS (1536 spf)
  132. Bit depth : 16 bits
  133. Compression mode : Lossy
  134. Delay relative to video : -8 ms
  135. Stream size : 480 MiB (1%)
  136.  
  137. Text #1
  138. ID : 4768 (0x12A0)
  139. Menu ID : 1 (0x1)
  140. Format : PGS
  141. Codec ID : 144
  142.  
  143. Text #2
  144. ID : 4769 (0x12A1)
  145. Menu ID : 1 (0x1)
  146. Format : PGS
  147. Codec ID : 144
  148.  
  149. Text #3
  150. ID : 4770 (0x12A2)
  151. Menu ID : 1 (0x1)
  152. Format : PGS
  153. Codec ID : 144
  154.  
  155. Text #4
  156. ID : 4771 (0x12A3)
  157. Menu ID : 1 (0x1)
  158. Format : PGS
  159. Codec ID : 144
  160.  
  161. Text #5
  162. ID : 4772 (0x12A4)
  163. Menu ID : 1 (0x1)
  164. Format : PGS
  165. Codec ID : 144
  166.  
  167. Technical Specs
  168. 4K Ultra HD Blu-ray
  169. UHD-66 Dual-Layer Disc
  170.  
  171. Video Resolution/Codec
  172. 2160p HEVC
  173.  
  174. Aspect Ratio(s)
  175. 1.85:1
  176.  
  177. Audio Formats
  178. English Dolby Atmos
  179. English Dolby TrueHD 7.1
  180. French DTS-HD Master Audio 5.1
  181. English Dolby Digital 5.1 (Descriptive)
  182. Spanish Dolby Digital 5.1
  183. French Dolby Digital 2.0 (Descriptive)
  184.  
  185. Subtitles/Captions
  186. English
  187. English SDH
  188. French
  189. Spanish
  190.  
  191. Supplements
  192. None
Add Comment
Please, Sign In to add comment